7 Dias En La Habana 2012 VOSTFR DVDRip XviD AC3-UTT URL Raccourcie

Télécharger "7 Dias En La Habana 2012 VOSTFR DVDRip XviD AC3-UTT" en illimité a une vitesse de 1000 kbps grïâce aux 14 Jours d'essai gratuit offerts par Usenet.nl!

(¯`·._.·[   7 jours à la Havane - 7 Dias en La Habana 2012 VOSTFR DVDRip XviD AC3   ]·._.·´¯]



Vendu sur amazon.com






Origine du film : Français, espagnol
Distributeur : Rezo Films
Réalisateur : Benicio Del Toro, Pablo Trapero, Julio Medem
Acteurs : Josh Hutcherson, Vladimir Cruz, Emir Kusturica
Genre : Drame
Durée : 2h 9 min
Date de sortie : 30 mai 2012
Année de production : 2012
Critiques spectateurs :  3,3  
Critiques presse :  1,9  

Bande annonce :







Instantané de la Havane d'aujourd'hui : un portrait contemporain d'une ville éclectique à travers un film composé de 7 chapitres réalisés par Benicio del Toro, Pablo Trapero, Julio Medem, Elia Suleiman, Gaspar Noé, Juan Carlos Tabío et Laurent Cantet. À travers leurs différentes sensibilités, origines et styles cinématographiques, ils ont saisi l'énergie et la vitalité qui rendent cette ville unique. Certains réalisateurs ont eu le désir de croiser la réalité cubaine en prise avec son quotidien, avec le regard d'étrangers loin de leurs repères. D'autres ont choisi l'immersion totale et se sont inspirés de la vie de la population locale.

Chaque chapitre raconte une journée de la semaine, à travers le quotidien d'un personnage différent. Loin des clichés, ce film a pour vocation de faire résonner l'âme de cette ville hétéroclite au fil des quartiers, des ambiances, des générations et des cultures. Si les 7 histoires présentent des intrigues différentes, les réalisateurs ont accepté d'inscrire leur récit dans une trame partiellement commune et de lier les histoires entre elles, afin de créer une impression d'unité dramatique.

Certains lieux de tournage, comme l'Hôtel Nacional ou le Malecon, apparaissent de façon récurrente au fil des chapitres. Certains personnages principaux et secondaires glissent d'un film à l'autre, connectant les histoires, de manière à montrer qu'à la Havane, toutes les couches sociales se croisent, se côtoient, parfois s'entremêlent...






Uploader : Phoenix10498
Qualité : DVDRiP
Format : XviD
Langue :
Sous-titre :
Nom de la Release : UTT

Nombre de fichiers : 1 Fichier
Taille des fichiers : 1.39 Go

Total du post : 1.39 Go





Un film magnifique. Langue espagnole au format AC3, sous titres en français. Enjoy Guys.





↓↓↓ 7 Dias En La Habana 2012 VOSTFR DVDRip XviD AC3-UTT ↓↓↓
 

www.usenet.nl

Seeders 8 Leechers 0 Téléchargements 966
 
Télécharger Dire merci! Signaler
Voir la liste des membres qui vous remercient
↑↑↑ 7 Dias En La Habana 2012 VOSTFR DVDRip XviD AC3-UTT ↑↑↑

Informations

Nom 7 Dias En La Habana 2012 VOSTFR DVDRip XviD AC3-UTT
Torrent 7.Dias.en.La.Habana.2012.VOSTFR.DVDRip.XviD-AC3-UTT.torrent
Catégorie Film
Taille totale 1.39 GB
Info Hash ba2926b923ef5756605f98aeeccb21f970e57c35
Uploadé par Phoenix10498
Uploadé le 2013-01-28 12:07:04 (+00:00)
Visites 1242
évaluation 5/5 (7 votes)

Liste des Fichiers

Path Size
7.Dias.en.La.Habana.2012.VOSTFR.DVDRip.XviD-AC3-UTT/7-jours-c3a0-la-havane.jpg 508.32 KB
7.Dias.en.La.Habana.2012.VOSTFR.DVDRip.XviD-AC3-UTT/7.Dias.en.La.Habana.2012.VOSTFR.DVDRip.XviD-AC3-UTT.avi 1.39 GB
7.Dias.en.La.Habana.2012.VOSTFR.DVDRip.XviD-AC3-UTT/7.Dias.en.La.Habana.2012.VOSTFR.DVDRip.XviD-AC3-UTT.nfo 2.57 KB

Voir le NFO

General
Complete name                            : 7.Dias.en.La.Habana.2012.VOSTFR.DVDRip.XviD-AC3-UTT.avi
Format                                   : AVI
Format/Info                              : Audio Video Interleave
File size                                : 1.39 GiB
Duration                                 : 2h 4mn
Overall bit rate                         : 1 598 Kbps

Video
ID                                       : 0
Format                                   : MPEG-4 Visual
Format profile                           : Simple@L3
Format settings, BVOP                    : No
Format settings, QPel                    : No
Format settings, GMC                     : No warppoints
Format settings, Matrix                  : Default (H.263)
Codec ID                                 : XVID
Codec ID/Hint                            : XviD
Duration                                 : 2h 4mn
Bit rate                                 : 1 139 Kbps
Width                                    : 704 pixels
Height                                   : 384 pixels
Display aspect ratio                     : 1.85:1
Frame rate                               : 25.000 fps
Color space                              : YUV
Chroma subsampling                       : 4:2:0
Bit depth                                : 8 bits
Scan type                                : Progressive
Compression mode                         : Lossy
Bits/(Pixel*Frame)                       : 0.169
Stream size                              : 1 016 MiB (71%)
Writing library                          : XviD 1.1.2 (UTC 2006-11-01)

Audio
ID                                       : 1
Format                                   : AC-3
Format/Info                              : Audio Coding 3
Mode extension                           : CM (complete main)
Format settings, Endianness              : Big
Codec ID                                 : 2000
Duration                                 : 2h 4mn
Source duration                          : 2h 4mn
Bit rate mode                            : Constant
Bit rate                                 : 448 Kbps
Channel(s)                               : 6 channels
Channel positions                        : Front: L C R, Side: L R, LFE
Sampling rate                            : 48.0 KHz
Bit depth                                : 16 bits
Compression mode                         : Lossy
Stream size                              : 400 MiB (28%)
Alignment                                : Aligned on interleaves
Interleave, duration                     : 32 ms (0.80 video frame)
Interleave, preload duration             : 800 ms


Ajouter un commentaire

kikouye77 ↑ 711.4 GB ↓ 455.99 GB Ratio: 1,56

Merci et bon film!

oiuf2foot ↑ 647.44 GB ↓ 653.16 GB Ratio: 0,99

Muchas gracias !
C'est un excellent film, je me suis régalé!

wazabi44 ↑ 846.39 GB ↓ 226.25 GB Ratio: 3,74

Super ! depuis le temps que je l'attends ! muchas gracias !

alerterougexxxx ↑ 87.93 GB ↓ 78.92 GB Ratio: 1,11

Que bueno gracias !

zpequegno ↑ 982.28 GB ↓ 906.25 GB Ratio: 1,08

Muchas gracias!!
il a l'aire énorme!
7 dias en la Habana es un sueno para cualquiera. Merci encore

fowziyoli ↑ 699.73 GB ↓ 629.94 GB Ratio: 1,11

suis je le seul à ne pas l'avoir ac une bonne qualité!?

Télécharger "7 Dias En La Habana 2012 VOSTFR DVDRip XviD AC3-UTT" en illimité a une vitesse de 1000 kbps grïâce aux 14 Jours d'essai gratuit offerts par Usenet.nl!
 
Loading...