Beverly Hills 90210 Saison 5 URL Raccourcie

Télécharger "Beverly Hills 90210 Saison 5" en illimité a une vitesse de 1000 kbps grïâce aux 14 Jours d'essai gratuit offerts par Usenet.nl!



La famille Walsh (composée de Jim et Cindy et leurs enfants jumeaux Brenda et Brandon) débarque du Minnesota.

Ils s'installent dans le quartier huppé de Beverly Hills.

Dès leur premier jour d'école, Brenda et Brandon font la connaissance de Steve, Andrea et Kelly, puis de Dylan, Donna et David.

Entre romances et déceptions sentimentales, ensemble, ils vont découvrir les joies de la vie californienne…



↓↓↓ Beverly Hills 90210 Saison 5 ↓↓↓
 

www.usenet.nl

Seeders 11 Leechers 1 Téléchargements 3107
 
Télécharger Dire merci! Signaler
Voir la liste des membres qui vous remercient
↑↑↑ Beverly Hills 90210 Saison 5 ↑↑↑

Informations

Nom Beverly Hills 90210 Saison 5
Torrent Beverly Hills 90210 S05.torrent
Catégorie Série TV
Taille totale 11.62 GB
Info Hash ff83398c237fa9a79ac6faad1611308850da0152
Uploadé par TheBevBuy
Uploadé le 2009-02-11 16:34:26 (+00:00)
Visites 4646
évaluation 4.9/5 (27 votes)

Liste des Fichiers

Path Size
Beverly Hills 90210 S05.jpg 54.08 KB
Beverly Hills 90210 S05.nfo 71.73 KB
Beverly.Hills.5x01.Retour.de.vacances.avi 348.18 MB
Beverly.Hills.5x02.Jeune.fille.sous.influence.avi 373.04 MB
Beverly.Hills.5x03.Élu.malgré.lui.avi 373.15 MB
Beverly.Hills.5x04.La.Vie.apres.la.mort.avi 368.07 MB
Beverly.Hills.5x05.Une.fete.branchée.avi 373.03 MB
Beverly.Hills.5x06.La.Mascotte.avi 373.05 MB
Beverly.Hills.5x07.Photo.de.famille.avi 373.19 MB
Beverly.Hills.5x08.Dépendance.avi 369.26 MB
Beverly.Hills.5x09.Dérapages.avi 372.19 MB
Beverly.Hills.5x10.Les.Hallucinations.de.Dylan.McKay.avi 373.04 MB
Beverly.Hills.5x11.Réminiscence.de.haine.avi 373.2 MB
Beverly.Hills.5x12.Tous.au.concert.avi 376.1 MB
Beverly.Hills.5x13.Tout.feu,tout.flamme.avi 373.1 MB
Beverly.Hills.5x14.Justice.pour.tous.avi 372.95 MB
Beverly.Hills.5x15.Joyeux.Noël.avi 373.22 MB
Beverly.Hills.5x16.Condamné.à.vivre.avi 373.22 MB
Beverly.Hills.5x17.L'Initiation.avi 372.97 MB
Beverly.Hills.5x18.Un.beau.coup.de.filet.avi 373.17 MB
Beverly.Hills.5x19.Embrigadement.avi 373.08 MB
Beverly.Hills.5x20.Le.coeur.à.ses.raisons.avi 369.2 MB
Beverly.Hills.5x21.Enfin.Libre.avi 373.13 MB
Beverly.Hills.5x22.Trop.sûre.d'elle.avi 369.12 MB
Beverly.Hills.5x23.Déception.amoureuse.avi 359.2 MB
Beverly.Hills.5x24.Un.monde.irréel.avi 373.16 MB
Beverly.Hills.5x25.Le.Jeu.des.questions.avi 373.1 MB
Beverly.Hills.5x26.Des.retrouvailles.émouvantes.avi 373.25 MB
Beverly.Hills.5x27.Sans.haine.avi 373.17 MB
Beverly.Hills.5x28.Kelly.top.model.avi 369.4 MB
Beverly.Hills.5x29.Le.Véritable.McCoy.avi 373.07 MB
Beverly.Hills.5x30.Adieu.Beverly.Hills.avi 368.27 MB
Beverly.Hills.5x31.Amour.toujours.1ere.partie.avi 405.63 MB
Beverly.Hills.5x32.Amour.toujours.2eme.partie.avi 359.02 MB

Voir le NFO

General
Complete name                    : Beverly.Hills.5x01.Retour.de.vacances.avi
Format                           : AVI
Format/Info                      : Audio Video Interleave
File size                        : 348 MiB
Duration                         : 40mn 5s
Overall bit rate                 : 1 214 Kbps
Movie name                       : Beverly Hills saison 5 épisode 1 Retour de vacances by LVT
Director                         : Le Var Team
Writing application              : VirtualDubMod 1.5.10.2 (build 2540/release)
Writing library                  : VirtualDubMod build 2540/release
Copyright                        : 3 / 2007

Video
Format                           : MPEG-4 Visual
Format settings, BVOP            : Yes
Format settings, QPel            : No
Format settings, GMC             : No warppoints
Format settings, Matrix          : Default
Muxing mode                      : Packed bitstream
Codec ID                         : DX50
Codec ID/Hint                    : DivX 5
Duration                         : 40mn 5s
Bit rate                         : 1 077 Kbps
Width                            : 544 pixels
Height                           : 416 pixels
Display aspect ratio             : 4/3
Frame rate                       : 25.000 fps
Resolution                       : 24 bits
Colorimetry                      : 4:2:0
Scan type                        : Progressive
Bits/(Pixel*Frame)               : 0.190
Stream size                      : 309 MiB (89%)
Writing library                  : DivX 6.4.0 (UTC 2006-10-03)

Audio
Format                           : MPEG Audio
Format version                   : Version 1
Format profile                   : Layer 3
Codec ID                         : 55
Codec ID/Hint                    : MP3
Duration                         : 40mn 5s
Bit rate mode                    : Constant
Bit rate                         : 128 Kbps
Channel(s)                       : 2 channels
Sampling rate                    : 48.0 KHz
Resolution                       : 16 bits
Stream size                      : 36.7 MiB (11%)
Alignment                        : Aligned on interleaves
Interleave, duration             : 40 ms (1.00 video frame)
Interleave, preload duration     : 504 ms

General
Complete name                    : Beverly.Hills.5x02.Jeune.fille.sous.influence.avi
Format                           : AVI
Format/Info                      : Audio Video Interleave
File size                        : 373 MiB
Duration                         : 42mn 59s
Overall bit rate                 : 1 213 Kbps
Writing application              : VirtualDubMod 1.5.10.2 (build 2540/release)
Writing library                  : VirtualDubMod build 2540/release

Video
Format                           : MPEG-4 Visual
Format settings, BVOP            : Yes
Format settings, QPel            : No
Format settings, GMC             : No warppoints
Format settings, Matrix          : Default
Muxing mode                      : Packed bitstream
Codec ID                         : DX50
Codec ID/Hint                    : DivX 5
Duration                         : 42mn 59s
Bit rate                         : 1 075 Kbps
Width                            : 544 pixels
Height                           : 416 pixels
Display aspect ratio             : 4/3
Frame rate                       : 25.000 fps
Resolution                       : 24 bits
Colorimetry                      : 4:2:0
Scan type                        : Progressive
Bits/(Pixel*Frame)               : 0.190
Stream size                      : 331 MiB (89%)
Writing library                  : DivX 6.4.0 (UTC 2006-10-03)

Audio
Format                           : MPEG Audio
Format version                   : Version 1
Format profile                   : Layer 3
Codec ID                         : 55
Codec ID/Hint                    : MP3
Duration                         : 42mn 59s
Bit rate mode                    : Constant
Bit rate                         : 128 Kbps
Channel(s)                       : 2 channels
Sampling rate                    : 48.0 KHz
Resolution                       : 16 bits
Stream size                      : 39.4 MiB (11%)
Alignment                        : Aligned on interleaves
Interleave, duration             : 40 ms (1.00 video frame)
Interleave, preload duration     : 504 ms

General
Complete name                    : Beverly.Hills.5x03.Élu.malgré.lui.avi
Format                           : AVI
Format/Info                      : Audio Video Interleave
File size                        : 373 MiB
Duration                         : 42mn 58s
Overall bit rate                 : 1 214 Kbps
Movie name                       : Beverly Hills saison 5 épisode 3 Élu malgré lui by LVT
Director                         : Le Var Team
Writing application              : VirtualDubMod 1.5.10.2 (build 2540/release)
Writing library                  : VirtualDubMod build 2540/release
Copyright                        : 3 / 2007

Video
Format                           : MPEG-4 Visual
Format settings, BVOP            : Yes
Format settings, QPel            : No
Format settings, GMC             : No warppoints
Format settings, Matrix          : Default
Muxing mode                      : Packed bitstream
Codec ID                         : DX50
Codec ID/Hint                    : DivX 5
Duration                         : 42mn 58s
Bit rate                         : 1 076 Kbps
Width                            : 544 pixels
Height                           : 416 pixels
Display aspect ratio             : 4/3
Frame rate                       : 25.000 fps
Resolution                       : 24 bits
Colorimetry                      : 4:2:0
Scan type                        : Progressive
Bits/(Pixel*Frame)               : 0.190
Stream size                      : 331 MiB (89%)
Writing library                  : DivX 6.4.0 (UTC 2006-10-03)

Audio
Format                           : MPEG Audio
Format version                   : Version 1
Format profile                   : Layer 3
Codec ID                         : 55
Codec ID/Hint                    : MP3
Duration                         : 42mn 58s
Bit rate mode                    : Constant
Bit rate                         : 128 Kbps
Channel(s)                       : 2 channels
Sampling rate                    : 48.0 KHz
Resolution                       : 16 bits
Stream size                      : 39.3 MiB (11%)
Alignment                        : Aligned on interleaves
Interleave, duration             : 40 ms (1.00 video frame)
Interleave, preload duration     : 504 ms

General
Complete name                    : Beverly.Hills.5x04.La.Vie.apres.la.mort.avi
Format                           : AVI
Format/Info                      : Audio Video Interleave
File size                        : 368 MiB
Duration                         : 42mn 24s
Overall bit rate                 : 1 213 Kbps
Movie name                       : Beverly Hills saison 5 Episode 4 La Vie apres la mort by LVT
Director                         : Le Var Team
Writing application              : VirtualDubMod 1.5.10.2 (build 2540/release)
Writing library                  : VirtualDubMod build 2540/release
Copyright                        : 3 / 2007

Video
Format                           : MPEG-4 Visual
Format settings, BVOP            : Yes
Format settings, QPel            : No
Format settings, GMC             : No warppoints
Format settings, Matrix          : Default
Muxing mode                      : Packed bitstream
Codec ID                         : DX50
Codec ID/Hint                    : DivX 5
Duration                         : 42mn 24s
Bit rate                         : 1 076 Kbps
Width                            : 544 pixels
Height                           : 416 pixels
Display aspect ratio             : 4/3
Frame rate                       : 25.000 fps
Resolution                       : 24 bits
Colorimetry                      : 4:2:0
Scan type                        : Progressive
Bits/(Pixel*Frame)               : 0.190
Stream size                      : 326 MiB (89%)
Writing library                  : DivX 6.4.0 (UTC 2006-10-03)

Audio
Format                           : MPEG Audio
Format version                   : Version 1
Format profile                   : Layer 3
Codec ID                         : 55
Codec ID/Hint                    : MP3
Duration                         : 42mn 24s
Bit rate mode                    : Constant
Bit rate                         : 128 Kbps
Channel(s)                       : 2 channels
Sampling rate                    : 48.0 KHz
Resolution                       : 16 bits
Stream size                      : 38.8 MiB (11%)
Alignment                        : Aligned on interleaves
Interleave, duration             : 40 ms (1.00 video frame)
Interleave, preload duration     : 504 ms

General
Complete name                    : Beverly.Hills.5x05.Une.fete.branchée.avi
Format                           : AVI
Format/Info                      : Audio Video Interleave
File size                        : 373 MiB
Duration                         : 42mn 57s
Overall bit rate                 : 1 214 Kbps
Movie name                       : Beverly Hills saison 5 épisode 5 Une fête branchée by LVT
Director                         : Le Var Team
Writing application              : VirtualDubMod 1.5.10.2 (build 2540/release)
Writing library                  : VirtualDubMod build 2540/release
Copyright                        : 4 / 2007

Video
Format                           : MPEG-4 Visual
Format settings, BVOP            : Yes
Format settings, QPel            : No
Format settings, GMC             : No warppoints
Format settings, Matrix          : Default
Muxing mode                      : Packed bitstream
Codec ID                         : DX50
Codec ID/Hint                    : DivX 5
Duration                         : 42mn 57s
Bit rate                         : 1 077 Kbps
Width                            : 544 pixels
Height                           : 416 pixels
Display aspect ratio             : 4/3
Frame rate                       : 25.000 fps
Resolution                       : 24 bits
Colorimetry                      : 4:2:0
Scan type                        : Progressive
Bits/(Pixel*Frame)               : 0.190
Stream size                      : 331 MiB (89%)
Writing library                  : DivX 6.4.0 (UTC 2006-10-03)

Audio
Format                           : MPEG Audio
Format version                   : Version 1
Format profile                   : Layer 3
Codec ID                         : 55
Codec ID/Hint                    : MP3
Duration                         : 42mn 57s
Bit rate mode                    : Constant
Bit rate                         : 128 Kbps
Channel(s)                       : 2 channels
Sampling rate                    : 48.0 KHz
Resolution                       : 16 bits
Stream size                      : 39.3 MiB (11%)
Alignment                        : Aligned on interleaves
Interleave, duration             : 40 ms (1.00 video frame)
Interleave, preload duration     : 504 ms

...

TÉLÉCHARGER "Beverly Hills 90210 Saison 5" 20x PLUS VITE AVEC USENET
Anonyme&Rapide – 14 jours gratuits

Ajouter un commentaire

1 - 20 | 21 - 31
minapucenico ↑ 19.13 GB ↓ 25.53 GB Ratio: 0,74

pourquoi il n'y a pas de seed ?

thebloodmask ↑ 3.37 TB ↓ 3.82 TB Ratio: 0,88

seed please

aikdo1984 ↑ 621.72 GB ↓ 567.61 GB Ratio: 1,09

Un Grand merci

bleumesmel ↑ 115.49 GB ↓ 146.93 GB Ratio: 0,78

merci pour se partage

bleumesmel ↑ 115.49 GB ↓ 146.93 GB Ratio: 0,78

merci pour se partage

bleumesmel ↑ 115.49 GB ↓ 146.93 GB Ratio: 0,78

merci pour se partage

soso974 ↑ 902.95 GB ↓ 720.94 GB Ratio: 1,25

bonjour a tous es ce que quelqu un saurait ou l on peut trouver la saison 6 svp merci

tyula2 ↑ 4.4 TB ↓ 1.97 TB Ratio: 2,22

merci idem je cherche la saison 6......

yann2609 ↑ 30.37 GB ↓ 41.54 GB Ratio: 0,73

merci les gars là vous me rappeler mon enfance

Tuily

Bonjour, la saison est en Français sans les sous-titre ?

sebak57 ↑ 32.09 GB ↓ 23.03 GB Ratio: 1,39

salut je cherche la saison 6 de bevrly hills quelqu'un peut m'aider ?Merci

mirka1985 ↑ 916.8 GB ↓ 1.17 TB Ratio: 0,76

On seed svp! Merci!

willi90 ↑ 689.56 GB ↓ 624.71 GB Ratio: 1,10

salut est elle en vost?

zabbala ↑ 154.13 GB ↓ 144.64 GB Ratio: 1,06

Bonjour tous le monde
mon débit n'est pas génial,mais je seed 24h/24

Merci pour tout

MisterDG ↑ 5.2 TB ↓ 1.59 TB Ratio: 3,27

coucou tout le monde ...
Un Grand merci pour cette cinquième saison ...
A++

hermione288 ↑ 97.04 GB ↓ 66.27 GB Ratio: 1,46

Merci, mon cousin cherche cette saison

ajs54 ↑ 69.52 GB ↓ 58.41 GB Ratio: 1,19

Super, merci à tous les seeders, et désolé de ne pas pouvoir transmettre plus longtemps...

Dernière édition par ajs54 le 2012-01-03 08:32:34

dydy02 ↑ 754.02 GB ↓ 967.5 GB Ratio: 0,77

j adord cette serie sa rapelle des souvenirs

woolfy70 ↑ 1.37 TB ↓ 1.2 TB Ratio: 1,14

Merci pour la saison 1 de beverly hills mais j aimerais avoir la saison 2 normale!! mais je l a trouve nulle part est ce que quelqu un l aurait merci d avance

deborah ↑ 129.57 GB ↓ 85.79 GB Ratio: 1,51

merci

1 - 20 | 21 - 31
Télécharger "Beverly Hills 90210 Saison 5" en illimité a une vitesse de 1000 kbps grïâce aux 14 Jours d'essai gratuit offerts par Usenet.nl!

 
Loading...