Filles Perdues, Cheveux Gras [DVD-Rip] URL Raccourcie

Télécharger "Filles Perdues, Cheveux Gras [DVD-Rip]" en illimité a une vitesse de 1000 kbps grïâce aux 14 Jours d'essai gratuit offerts par Usenet.nl!



Date de sortie cinéma : 10 septembre 2002


Réalisé par Claude Duty
Avec Amira Casar, Marina Foïs, Olivia Bonamy...


Long-métrage français . Genre : Comédie
Durée : 01h35min Année de production : 2002



Synopsis : Itinéraire croisé de trois jeunes femmes perdues : Elodie veut retrouver sa fille, Natacha son chat et Marianne son âme. Elles trouvent l'amitié et l'amour non sans avoir rencontré sur leur chemin un méchant séducteur, un ethnologue accueillant, un thérapeute musclé, un guerrier Massaï, un aborigène, des Incas, des femmes girafes et autres animaux.






↓↓↓ Filles Perdues, Cheveux Gras [DVD-Rip] ↓↓↓
 

www.usenet.nl

Seeders 16 Leechers 0 Téléchargements 2475
 
Télécharger Dire merci! Signaler
Voir la liste des membres qui vous remercient
↑↑↑ Filles Perdues, Cheveux Gras [DVD-Rip] ↑↑↑

Informations

Nom Filles Perdues, Cheveux Gras [DVD-Rip]
Torrent Filles perdues cheveux gras.avi.torrent
Catégorie Film
Taille totale 696.57 MB
Info Hash 49ef8c9599c8f614e0caf8f2d3fa20bd9c0392ec
Uploadé par pseudo1234
Uploadé le 2010-10-16 09:27:02 (+00:00)
Visites 1453
évaluation 4.9/5 (11 votes)

Liste des Fichiers

Path Size
Filles perdues cheveux gras.avi 696.57 MB

Voir le NFO

General
Complete name                    : Filles perdues cheveux gras.avi
Format                           : AVI
Format/Info                      : Audio Video Interleave
File size                        : 697 MiB
Duration                         : 1h 35mn
Overall bit rate                 : 1 021 Kbps
Writing application              : Nandub v1.0rc2
Writing library                  : Nandub build 1853/release

Video
ID                               : 0
Format                           : MPEG-4 Visual
Codec ID                         : DIV3
Codec ID/Hint                    : DivX 3 Low
Duration                         : 1h 35mn
Bit rate                         : 881 Kbps
Width                            : 576 pixels
Height                           : 304 pixels
Display aspect ratio             : 1.895
Frame rate                       : 25.000 fps
Color space                      : YUV
Chroma subsampling               : 4:2:0
Bit depth                        : 8 bits
Bits/(Pixel*Frame)               : 0.201
Stream size                      : 601 MiB (86%)

Audio
ID                               : 1
Format                           : MPEG Audio
Format version                   : Version 1
Format profile                   : Layer 3
Codec ID                         : 55
Codec ID/Hint                    : MP3
Duration                         : 1h 35mn
Bit rate mode                    : Constant
Bit rate                         : 128 Kbps
Channel(s)                       : 2 channels
Sampling rate                    : 44.1 KHz
Stream size                      : 87.3 MiB (13%)
Alignment                        : Aligned on interleaves
Interleave, duration             : 26 ms (0.65 video frame)
Interleave, preload duration     : 496 ms

TÉLÉCHARGER "Filles Perdues, Cheveux Gras [DVD-Rip]" 20x PLUS VITE AVEC USENET
Anonyme&Rapide – 14 jours gratuits

Ajouter un commentaire

diavolina

Merci mille fois

flo888999 ↑ 55.98 GB ↓ 64.08 GB Ratio: 0,87

tres bon film merci je vais seeder

MllexN ↑ 265.13 GB ↓ 306.03 GB Ratio: 0,86

Merci beaucoup!! Très bon film, Marina Foïs est excellente!

MeganeK ↑ 571.43 GB ↓ 629.4 GB Ratio: 0,90

Un super film. Je seede.

normane ↑ 25.45 GB ↓ 18.81 TB Ratio: 0,00



Trop mignon ce film !!!!!!!!!!

Merci Pseudo1234

johnnydeedap ↑ 1.39 TB ↓ 817.42 GB Ratio: 1,73

merci

nicol66 ↑ 704.23 GB ↓ 906.81 GB Ratio: 0,77

merci beaucoup

bat56 ↑ 770.97 GB ↓ 329 GB Ratio: 2,34

merci

dadsl ↑ 1.51 TB ↓ 1.41 TB Ratio: 1,07

Merci pour un de mes films cultes... On l'adore où on le déteste !

moonla ↑ 2.45 TB ↓ 1.87 TB Ratio: 1,30

Merci pour madame

Malinois

Torrent ok ~ Merci pour ta participation! Bon download aux autres.
N'oubliez pas de remercier! Les uploadeurs travaillent pour vous et assurent ainsi la diversité des fichiers sur T411 alors pensez à les remercier.
Un merci, un commentaire et rester en seed, ça fait plaisir à l'uploader.

Rainstorm Foudroyeur intersidéral

Image(s), bannière(s) ou signature trop grande(s):
Merci de respecter la taille imposée (480px max de large et 640px max de haut) en redimensionnant avec des balises (Invalid img) pour un redimensionnement automatique.
Les bandeaux, bannières et signatures sont concernés aussi.

Télécharger "Filles Perdues, Cheveux Gras [DVD-Rip]" en illimité a une vitesse de 1000 kbps grïâce aux 14 Jours d'essai gratuit offerts par Usenet.nl!
 
Loading...