Le Drôle de Noël de Scrooge HD 720 URL Raccourcie

Télécharger "Le Drôle de Noël de Scrooge HD 720" en illimité a une vitesse de 1000 kbps grïâce aux 14 Jours d'essai gratuit offerts par Usenet.nl!


Origine du film : américain
Réalisateur : Robert Zemeckis
Acteurs : Aucune infos ...
Genre : Animation Durée :01h36min Année de production : 2009 Distributeur :Walt Disney Studios Motion Pictures France Synopsis : Parmi tous les marchands de Londres, Ebenezer Scrooge est connu comme l'un des plus riches et des plus avares. Ce vieillard solitaire et insensible vit dans l'obsession de ses livres de comptes. Ni la mort de son associé, Marley, ni la pauvre condition de son employé, Bob Cratchit, n'ont jamais réussi à l'émouvoir.De tous les jours de l'année, celui que Scrooge déteste le plus est Noël. L'idée de répandre joie et cadeaux va définitivement à l'encontre de tous ses principes ! Pourtant, cette année, Scrooge va vivre un Noël qu'il ne sera pas près d'oublier...Tout commence la veille de Noël, lorsqu'en rentrant chez lui, Scrooge a d'étranges hallucinations. Le spectre de son ancien associé lui rend la plus effrayante des visites, et lui en annonce d'autres, aussi magiques que troublantes...Scrooge se voit d'abord confronté à l'Esprit des Noëls passés, qui le replonge dans ses propres souvenirs, réveillant en lui des blessures oubliées et des regrets profondément enfouis...
Durée : 01h36min
Année de production : 2009
Distributeur : Walt Disney Studios Motion Pictures France
Synopsis : Parmi tous les marchands de Londres, Ebenezer Scrooge est connu comme l'un des plus riches et des plus avares
Date de sortie :   25 novembre 2009

Qualité : HD 720p
Format : MKV



↓↓↓ Le Drôle de Noël de Scrooge HD 720 ↓↓↓
 

www.usenet.nl

Seeders 14 Leechers 0 Téléchargements 3785
 
Télécharger Dire merci! Signaler
Voir la liste des membres qui vous remercient
↑↑↑ Le Drôle de Noël de Scrooge HD 720 ↑↑↑

Informations

Nom Le Drôle de Noël de Scrooge HD 720
Torrent Le Drôle de Noël de Scrooge.mkv.torrent
Catégorie Animation
Taille totale 4.37 GB
Info Hash 86a6ba387e575cdd8f02f7d9be4065b6c09cc76b
Uploadé par Anonymous
Uploadé le 2010-11-16 08:59:09 (+00:00)
Visites 1843
évaluation 4.8/5 (18 votes)

Liste des Fichiers

Path Size
Le Drôle de Noël de Scrooge.mkv 4.37 GB

Voir le NFO

General
Complete name                    : Le Drôle de Noël de Scrooge.mkv
Format                           : Matroska
File size                        : 4.37 GiB
Duration                         : 1h 35mn
Overall bit rate                 : 6 533 Kbps
Writing application              : x264.exe
Writing library                  : mkv2rls v1.3 (date: 2010 aug 28)

Video
ID                               : 1
Format                           : AVC
Format/Info                      : Advanced Video Codec
Format profile                   : High@L4.1
Format settings, CABAC           : Yes
Format settings, ReFrames        : 5 frames
Muxing mode                      : Container profile=Unknown@4.1
Codec ID                         : V_MPEG4/ISO/AVC
Duration                         : 1h 35mn
Bit rate                         : 5 892 Kbps
Width                            : 1 280 pixels
Height                           : 536 pixels
Display aspect ratio             : 2.35:1
Frame rate                       : 23.976 fps
Resolution                       : 8 bits
Colorimetry                      : 4:2:0
Scan type                        : Progressive
Bits/(Pixel*Frame)               : 0.358
Stream size                      : 3.86 GiB (88%)
Writing library                  : x264 core 107 r1745 4785e8e
Encoding settings                : cabac=1 / ref=5 / deblock=1:0:0 / analyse=0x3:0x133
Audio
ID                               : 2
Format                           : AC-3
Format/Info                      : Audio Coding 3
Format_Settings_ModeExtension    : CM (complete main)
Codec ID                         : A_AC3
Duration                         : 1h 35mn
Bit rate mode                    : Constant
Bit rate                         : 640 Kbps
Channel(s)                       : 6 channels
Channel positions                : Front: L C R, Side: L R, LFE
Sampling rate                    : 48.0 KHz
Stream size                      : 439 MiB (10%)
Title                            : French AC3 640kbps
Language                         : French

Text
ID                               : 3
Format                           : UTF-8
Codec ID                         : S_TEXT/UTF8
Codec ID/Info                    : UTF-8 Plain Text
Title                            : French
Language                         : French


TÉLÉCHARGER "Le Drôle de Noël de Scrooge HD 720" 20x PLUS VITE AVEC USENET
Anonyme&Rapide – 14 jours gratuits

Ajouter un commentaire

1 - 20 | 21 - 25
skoubi ↑ 3.78 TB ↓ 677.68 GB Ratio: 5,70

Excellente qualité audio et vidéo.

Une vraie réflexion sur le copyright par Lawrence Lessig, prof de droit à Stanford et Harvard : ICI

marco160 ↑ 1.56 TB ↓ 970.92 GB Ratio: 1,65

Merckiiiiii

alfrank82 ↑ 1.58 TB ↓ 1.46 TB Ratio: 1,08

Merci à toi pour le partage

salbutamol ↑ 66.41 GB ↓ 28.78 GB Ratio: 2,30

Pourquoi en mkv je sa bug avec le programme VLC ?

lilfab ↑ 2.53 TB ↓ 2.31 TB Ratio: 1,09

Excellente qualité vidéo et audio!!!!!!!!!!!!!!!

zed13500 ↑ 174.84 GB ↓ 173.35 GB Ratio: 1,00

merci

kriss8 ↑ 1.02 TB ↓ 1.07 TB Ratio: 0,95

merci merci merci

joseferre ↑ 197.97 GB ↓ 226.34 GB Ratio: 0,87

merci

pepouitpb ↑ 1.66 TB ↓ 1.32 TB Ratio: 1,25

merci

nathou90 ↑ 859.38 GB ↓ 586.57 GB Ratio: 1,46

Bonjour! Comment changer le fichier mkv en avi? Car je ne peu le lire sur mon vidéo à clef usb.
Merci!!

joker27 ↑ 1.06 TB ↓ 1.34 TB Ratio: 0,79

comment le graver incapable avec nero

1969P ↑ 230.23 GB ↓ 319.77 GB Ratio: 0,71

merci beaucoup

faze76

Merci,je seed à fond pour vous, mais vous êtes sur que c'est du français et pas du canadien ?

hope22 ↑ 235.3 GB ↓ 280.58 GB Ratio: 0,83

merci beaucoup

usec114

un superbe film pour les enfants et les parents,une bonne leçon pour les pingres.merci à l'uploader qui lui n'est pas une serrure,je reste en seed.audio 10/10 et video 10/10.bon téléchaegement à tous.

Oliversan ↑ 4.23 TB ↓ 4.57 TB Ratio: 0,92

Merci ^^

vualiah ↑ 4.17 TB ↓ 2.93 TB Ratio: 1,42

Ah enfin ! Merci grandement!

zrx1052 ↑ 1.29 TB ↓ 850.14 GB Ratio: 1,55

merci c'est cool

pauliott ↑ 929.71 GB ↓ 887.78 GB Ratio: 1,04

en cours de téléchargement merci d'avance

niflon ↑ 4.92 TB ↓ 3.77 TB Ratio: 1,30

pas encore téléchargé mais d'avance un GRAND MERCI !!!!

Une passion, ça ne s'explique pas ... Ça se vit !!!

1 - 20 | 21 - 25
Télécharger "Le Drôle de Noël de Scrooge HD 720" en illimité a une vitesse de 1000 kbps grïâce aux 14 Jours d'essai gratuit offerts par Usenet.nl!
 
Loading...