Les Bleus Premiers Pas Dans La Police Saison 2 URL Raccourcie

Télécharger "Les Bleus Premiers Pas Dans La Police Saison 2" en illimité a une vitesse de 1000 kbps grïâce aux 14 Jours d'essai gratuit offerts par Usenet.nl!
(¯`·._.·[ Les Bleus : Premiers pas dans la police - AlloCiné ]·._.·´¯





Origine de la serie : : Française
Titre original : Aucune information ...
Saison : 3
Episodes : 18
Top Série : 189 ème
Statut : en production
Réalisateur : Stéphane Giusti, Alain Robillard en 2005
Acteurs : Clémentine Célarié, Elodie Yung
Genre : Policier
Durée : 52
Date de diffusion : : 8 Février 2006



Les Bleus, un groupe de jeunes adultes tout juste diplômés de l'école de police, font leurs premiers pas dans le monde du travail. Ils quittent le sécurisant cocon familial, pour se retrouver, un flingue à la main, confronté à des situations plus sombres les unes que les autres. Ils vont devoir s'accrocher pour se faire leur place au sein du commissariat...


A bout portant
Saison 2 - Episode 6
Devoir de mémoire
Saison 2 - Episode 5
Episode 16
Saison 2 - Episode 4
Episode 15
Saison 2 - Episode 3
Nouveau départ
Saison 2 - Episode 2
Derrière les barreaux
Saison 2 - Episode 1




Hébergeur :
Qualité : TVrip
Format : XviD
Langue : Français
Sous-titre :
Découper avec :
Nombre de fichiers : Fichiers
Taille des fichiers : Mo
Taille totale : 1900 Mo



Total du post: 1900 Mo



↓↓↓ Les Bleus Premiers Pas Dans La Police Saison 2 ↓↓↓
 

www.usenet.nl

Seeders 9 Leechers 0 Téléchargements 4563
 
Télécharger Dire merci! Signaler
Voir la liste des membres qui vous remercient
↑↑↑ Les Bleus Premiers Pas Dans La Police Saison 2 ↑↑↑

Informations

Nom Les Bleus Premiers Pas Dans La Police Saison 2
Torrent Les Bleus Premiers Pas Dans La Police Saison 2.torrent
Catégorie Série TV
Taille totale 1.91 GB
Info Hash 83e02eeced73d086a4e33fea8c6bd7a4ba6313e0
Uploadé par JuLii3N
Uploadé le 2009-09-06 11:56:33 (+00:00)
Visites 3291
évaluation 4.8/5 (34 votes)

Liste des Fichiers

Path Size
2.01.Les bleus - Derriere les barreaux.avi 325.55 MB
2.02.Les bleus - Nouveau départ.avi 341.95 MB
2.03.Les bleus - Jeux Dangereux.avi 319.12 MB
2.04.Les bleus - Alerte enlevement.avi 345.7 MB
2.05.Les bleus - Devoir de memoire.avi 309.93 MB
2.06.Les bleus - A bout portant.avi 309.19 MB

Voir le NFO

General
Complete name                    : 2.01.Les bleus - Derriere les barreaux.avi
Format                           : AVI
Format/Info                      : Audio Video Interleave
File size                        : 326 MiB
Duration                         : 54mn 23s
Overall bit rate                 : 837 Kbps
Writing library                  : VirtualDub-MPEG2 Fr build 24587/release

Video
ID                               : 0
Format                           : MPEG-4 Visual
Format settings, BVOP            : Yes
Format settings, QPel            : No
Format settings, GMC             : No warppoints
Format settings, Matrix          : Default (H.263)
Muxing mode                      : Packed bitstream
Codec ID                         : DX50
Codec ID/Hint                    : DivX 5
Duration                         : 54mn 23s
Bit rate                         : 699 Kbps
Width                            : 704 pixels
Height                           : 400 pixels
Display aspect ratio             : 16:9
Frame rate                       : 25.000 fps
Resolution                       : 24 bits
Colorimetry                      : 4:2:0
Scan type                        : Progressive
Bits/(Pixel*Frame)               : 0.099
Stream size                      : 272 MiB (84%)
Writing library                  : DivX 6.5.0 (UTC 2006-12)

Audio
ID                               : 1
Format                           : MPEG Audio
Format version                   : Version 1
Format profile                   : Layer 3
Codec ID                         : 55
Codec ID/Hint                    : MP3
Duration                         : 54mn 23s
Bit rate mode                    : Constant
Bit rate                         : 128 Kbps
Channel(s)                       : 2 channels
Sampling rate                    : 48.0 KHz
Resolution                       : 16 bits
Video delay                      : 105ms
Stream size                      : 49.8 MiB (15%)
Alignment                        : Split accross interleaves
Interleave, duration             : 40 ms (1.00 video frame)
Interleave, preload duration     : 500 ms

General
Complete name                    : 2.02.Les bleus - Nouveau départ.avi
Format                           : AVI
Format/Info                      : Audio Video Interleave
File size                        : 342 MiB
Duration                         : 51mn 17s
Overall bit rate                 : 932 Kbps
Writing library                  : VirtualDub-MPEG2 Fr build 24587/release

Video
ID                               : 0
Format                           : MPEG-4 Visual
Format settings, BVOP            : Yes
Format settings, QPel            : No
Format settings, GMC             : No warppoints
Format settings, Matrix          : Default (H.263)
Muxing mode                      : Packed bitstream
Codec ID                         : DX50
Codec ID/Hint                    : DivX 5
Duration                         : 51mn 17s
Bit rate                         : 794 Kbps
Width                            : 704 pixels
Height                           : 400 pixels
Display aspect ratio             : 16:9
Frame rate                       : 25.000 fps
Resolution                       : 24 bits
Colorimetry                      : 4:2:0
Scan type                        : Progressive
Bits/(Pixel*Frame)               : 0.113
Stream size                      : 291 MiB (85%)
Writing library                  : DivX 6.5.0 (UTC 2006-12)

Audio
ID                               : 1
Format                           : MPEG Audio
Format version                   : Version 1
Format profile                   : Layer 3
Codec ID                         : 55
Codec ID/Hint                    : MP3
Duration                         : 51mn 17s
Bit rate mode                    : Constant
Bit rate                         : 128 Kbps
Channel(s)                       : 2 channels
Sampling rate                    : 48.0 KHz
Resolution                       : 16 bits
Video delay                      : 1ms
Stream size                      : 47.0 MiB (14%)
Alignment                        : Split accross interleaves
Interleave, duration             : 40 ms (1.00 video frame)
Interleave, preload duration     : 500 ms

General
Complete name                    : 2.03.Les bleus - Jeux Dangereux.avi
Format                           : AVI
Format/Info                      : Audio Video Interleave
File size                        : 319 MiB
Duration                         : 50mn 29s
Overall bit rate                 : 884 Kbps
Writing library                  : VirtualDub-MPEG2 Fr build 24587/release

Video
ID                               : 0
Format                           : MPEG-4 Visual
Format settings, BVOP            : Yes
Format settings, QPel            : No
Format settings, GMC             : No warppoints
Format settings, Matrix          : Default (H.263)
Muxing mode                      : Packed bitstream
Codec ID                         : DX50
Codec ID/Hint                    : DivX 5
Duration                         : 50mn 29s
Bit rate                         : 778 Kbps
Width                            : 688 pixels
Height                           : 400 pixels
Display aspect ratio             : 16:9
Frame rate                       : 25.000 fps
Resolution                       : 24 bits
Colorimetry                      : 4:2:0
Scan type                        : Progressive
Bits/(Pixel*Frame)               : 0.113
Stream size                      : 281 MiB (88%)
Writing library                  : DivX 6.5.0 (UTC 2006-12)

Audio
ID                               : 1
Format                           : MPEG Audio
Format version                   : Version 1
Format profile                   : Layer 3
Codec ID                         : 55
Codec ID/Hint                    : MP3
Duration                         : 50mn 29s
Bit rate mode                    : Constant
Bit rate                         : 96.0 Kbps
Channel(s)                       : 2 channels
Sampling rate                    : 48.0 KHz
Resolution                       : 16 bits
Video delay                      : 105ms
Stream size                      : 34.7 MiB (11%)
Alignment                        : Split accross interleaves
Interleave, duration             : 40 ms (1.00 video frame)
Interleave, preload duration     : 500 ms

General
Complete name                    : 2.04.Les bleus - Alerte enlevement.avi
Format                           : AVI
Format/Info                      : Audio Video Interleave
File size                        : 346 MiB
Duration                         : 53mn 18s
Overall bit rate                 : 907 Kbps
Writing library                  : VirtualDub-MPEG2 Fr build 24587/release

Video
ID                               : 0
Format                           : MPEG-4 Visual
Format settings, BVOP            : Yes
Format settings, QPel            : No
Format settings, GMC             : No warppoints
Format settings, Matrix          : Default (H.263)
Muxing mode                      : Packed bitstream
Codec ID                         : DX50
Codec ID/Hint                    : DivX 5
Duration                         : 53mn 18s
Bit rate                         : 801 Kbps
Width                            : 688 pixels
Height                           : 400 pixels
Display aspect ratio             : 16:9
Frame rate                       : 25.000 fps
Resolution                       : 24 bits
Colorimetry                      : 4:2:0
Scan type                        : Progressive
Bits/(Pixel*Frame)               : 0.116
Stream size                      : 305 MiB (88%)
Writing library                  : DivX 6.5.0 (UTC 2006-12)

Audio
ID                               : 1
Format                           : MPEG Audio
Format version                   : Version 1
Format profile                   : Layer 3
Codec ID                         : 55
Codec ID/Hint                    : MP3
Duration                         : 53mn 18s
Bit rate mode                    : Constant
Bit rate                         : 96.0 Kbps
Channel(s)                       : 2 channels
Sampling rate                    : 48.0 KHz
Resolution                       : 16 bits
Video delay                      : 9ms
Stream size                      : 36.6 MiB (11%)
Alignment                        : Split accross interleaves
Interleave, duration             : 40 ms (1.00 video frame)
Interleave, preload duration     : 500 ms

General
Complete name                    : 2.05.Les bleus - Devoir de memoire.avi
Format                           : AVI
Format/Info                      : Audio Video Interleave
File size                        : 310 MiB
Duration                         : 53mn 7s
Overall bit rate                 : 816 Kbps
Writing library                  : VirtualDub-MPEG2 Fr build 24587/release

Video
ID                               : 0
Format                           : MPEG-4 Visual
Format settings, BVOP            : Yes
Format settings, QPel            : No
Format settings, GMC             : No warppoints
Format settings, Matrix          : Default (H.263)
Muxing mode                      : Packed bitstream
Codec ID                         : DX50
Codec ID/Hint                    : DivX 5
Duration                         : 53mn 7s
Bit rate                         : 710 Kbps
Width                            : 704 pixels
Height                           : 400 pixels
Display aspect ratio             : 16:9
Frame rate                       : 25.000 fps
Resolution                       : 24 bits
Colorimetry                      : 4:2:0
Scan type                        : Progressive
Bits/(Pixel*Frame)               : 0.101
Stream size                      : 270 MiB (87%)
Writing library                  : DivX 6.5.0 (UTC 2006-12)

Audio
ID                               : 1
Format                           : MPEG Audio
Format version                   : Version 1
Format profile                   : Layer 3
Codec ID                         : 55
Codec ID/Hint                    : MP3
Duration                         : 53mn 7s
Bit rate mode                    : Constant
Bit rate                         : 96.0 Kbps
Channel(s)                       : 2 channels
Sampling rate                    : 48.0 KHz
Resolution                       : 16 bits
Video delay                      : 73ms
Stream size                      : 36.5 MiB (12%)
Alignment                        : Split accross interleaves
Interleave, duration             : 40 ms (1.00 video frame)
Interleave, preload duration     : 500 ms

General
Complete name                    : 2.06.Les bleus - A bout portant.avi
Format                           : AVI
Format/Info                      : Audio Video Interleave
File size                        : 309 MiB
Duration                         : 51mn 56s
Overall bit rate                 : 832 Kbps
Writing library                  : VirtualDub build 28312/release

Video
ID                               : 0
Format                           : MPEG-4 Visual
Format settings, BVOP            : Yes
Format settings, QPel            : No
Format settings, GMC             : No warppoints
Format settings, Matrix          : Default (H.263)
Muxing mode                      : Packed bitstream
Codec ID                         : DX50
Codec ID/Hint                    : DivX 5
Duration                         : 51mn 56s
Bit rate                         : 726 Kbps
Width                            : 704 pixels
Height                           : 400 pixels
Display aspect ratio             : 16:9
Frame rate                       : 25.000 fps
Resolution                       : 24 bits
Colorimetry                      : 4:2:0
Scan type                        : Progressive
Bits/(Pixel*Frame)               : 0.103
Stream size                      : 270 MiB (87%)
Writing library                  : DivX 6.5.0 (UTC 2006-12)

Audio
ID                               : 1
Format                           : MPEG Audio
Format version                   : Version 1
Format profile                   : Layer 3
Codec ID                         : 55
Codec ID/Hint                    : MP3
Duration                         : 51mn 56s
Bit rate mode                    : Constant
Bit rate                         : 96.0 Kbps
Channel(s)                       : 2 channels
Sampling rate                    : 48.0 KHz
Resolution                       : 16 bits
Video delay                      : 9ms
Stream size                      : 35.7 MiB (12%)
Alignment                        : Split accross interleaves
Interleave, duration             : 40 ms (1.00 video frame)
Interleave, preload duration     : 500 ms

TÉLÉCHARGER "Les Bleus Premiers Pas Dans La Police Saison 2" 20x PLUS VITE AVEC USENET
Anonyme&Rapide – 14 jours gratuits

Ajouter un commentaire

1 - 20 | 21 - 21
bambolona ↑ 5.18 TB ↓ 3.48 TB Ratio: 1,48

merci pour votre upload. S'il vous plait la saison 1 des bleus...Je viens de decouvrir cette serie.

stephane1959

merci bcp

miledu39 ↑ 1.34 TB ↓ 826.3 GB Ratio: 1,65

Les Bleus, la seul série française que je regarde. La seul, l'unique a manier l'humour et la réalisation avec talent!

timelism ↑ 982.2 GB ↓ 1.02 TB Ratio: 0,93

Merci beaucoup j'aime beaucoup cette série, moins pour les enquetes que pour l'humour.

vincent9598 ↑ 217.8 GB ↓ 166.06 GB Ratio: 1,31

Cette saison 2 est encore mieux que la 1ère !!! Dommage qu'il y ait peu d'épisodes pour cette saison d'ailleurs.
La qualité des vidéos est vraiment pas top, mais c'est toujours mieux que rien....

judoka84 ↑ 144.73 GB ↓ 95.95 GB Ratio: 1,50

je maintiens mon commentaire de la première saison pour cette seconde saison. Toujours aussi plaisant. Merci

beeby38 ↑ 327.97 GB ↓ 260.93 GB Ratio: 1,25

Merci beaucoup pour cette saison

christophebaby ↑ 250.02 GB ↓ 233 GB Ratio: 1,07

attention y a que 6 episodes

misstick29 ↑ 54.89 GB ↓ 18.22 GB Ratio: 3,01

très bien comme la première saison
merci

alexetzazie ↑ 553.79 GB ↓ 523.03 GB Ratio: 1,05

merci

lucien7

Merci pour cette super série. Est ce qu'il y a d'autres épisodes dans cette saisons et est ce que vous pouvez les poster ?

frenchistef un mec avec de vraies valeurs

merci , après la 1 je prends donc la 2 !

clad06130 ↑ 877.63 GB ↓ 1.08 TB Ratio: 0,79

bonjour, j'aimerais savoir si vous avez la suite de la saison merci

jamo30 ↑ 512.65 GB ↓ 628.56 GB Ratio: 0,81

Merci je prends la suite et meme la saison 3

Sequane ↑ 743.7 GB ↓ 440.81 GB Ratio: 1,68

merci

macfly45 ↑ 1.52 TB ↓ 704.41 GB Ratio: 2,20

merci

earlg20 ↑ 1.09 TB ↓ 1.23 TB Ratio: 0,88

merci !!!!

Rlooping ↑ 546.95 GB ↓ 443.92 GB Ratio: 1,23

Ya que 6 eps ????

titicath ↑ 930.39 GB ↓ 1.15 TB Ratio: 0,78

MERCI BEAUCOUP

doublech :PIRATE: ↑ 541.33 GB ↓ 695.23 GB Ratio: 0,77

Merci super série a +++++

1 - 20 | 21 - 21
Télécharger "Les Bleus Premiers Pas Dans La Police Saison 2" en illimité a une vitesse de 1000 kbps grïâce aux 14 Jours d'essai gratuit offerts par Usenet.nl!
 
Loading...