NTM : Un an avec le Supreme URL Raccourcie

Télécharger "NTM : Un an avec le Supreme" en illimité a une vitesse de 1000 kbps grïâce aux 14 Jours d'essai gratuit offerts par Usenet.nl!
NTM : Un an avec le Suprême NTM





Acteur(s) : JoeyStarr, Kool Shen
Date de sortie du DVD : 22 février 2000
Studio : Sony/BMG
Format : Aucune Information ...
ASIN : B00004VXT1
Nombre de disques : 1


Après dix ans de carrière mouvementés, il n'existait pas de documentaire sur le groupe formé par Kool Shen et Joey Starr. L'actualité de ces derniers mois ayant remis le projecteur sur NTM, des proches, en l'occurrence Sear - rédacteur en chef d'Authentik, périodique édité par le groupe - et Guillaume Otzenberger les ont suivi de septembre 1998 à septembre 1999, caméra numérique à la main. Backstages des tournées, rapports souvent tendus avec les journalistes, studios de répétition mais aussi moments de détente, rien n'échappe à l'indiscrète caméra.



Hébergeur : Aucune Info
Qualité : DVDRiP
Format : DivX
Langue : Français
Sous-titre :
Découper avec : Aucun
Nombre de fichiers : 2 Fichiers
Taille des fichiers : 713 Mo
Taille totale : 713 Mo



Mot de pass : 0

Total du post: 713 Mo



↓↓↓ NTM : Un an avec le Supreme ↓↓↓
 

www.usenet.nl

Seeders 5 Leechers 0 Téléchargements 2321
 
Télécharger Dire merci! Signaler
Voir la liste des membres qui vous remercient
↑↑↑ NTM : Un an avec le Supreme ↑↑↑

Informations

Nom NTM : Un an avec le Supreme
Torrent NTM.Authentique.FRENCH.DVDRip.DivX.torrent
Catégorie Documentaire
Taille totale 713.31 MB
Info Hash 661a9159c346aa1d3494663199630f3c0380d030
Uploadé par bluearrow
Uploadé le 2009-10-29 03:17:47 (+00:00)
Visites 1029
évaluation 5/5 (20 votes)

Liste des Fichiers

Path Size
NTM Authentique.nfo 1.73 KB
NTM.Authentiques.DOC.FRENCH.DVDRip.DivX.avi 713.3 MB

Voir le NFO

General
Complete name                    : NTM.Authentique.FRENCH.DVDRip.DivX\NTM.Authentiques.DOC.FRENCH.DVDRip.DivX.avi
Format                           : AVI
Format/Info                      : Audio Video Interleave
File size                        : 713 MiB
Duration                         : 1h 22mn
Overall bit rate                 : 1 202 Kbps
Writing library                  : VirtualDub build 13130/release

Video
Format                           : MPEG-4 Visual
Format settings, BVOP            : Yes
Format settings, QPel            : No
Format settings, GMC             : No warppoints
Format settings, Matrix          : Default
Codec ID                         : DIVX
Codec ID/Info                    : Project Mayo
Codec ID/Hint                    : DivX 4
Duration                         : 1h 22mn
Bit rate                         : 1 129 Kbps
Width                            : 512 pixels
Height                           : 408 pixels
Display aspect ratio             : 5/4
Frame rate                       : 24.999 fps
Resolution                       : 24 bits
Scan type                        : Progressive
Bits/(Pixel*Frame)               : 0.216
Stream size                      : 670 MiB (94%)

Audio
Format                           : WMA2
Codec ID                         : 161
Codec ID/Info                    : Windows Media Audio 2
Duration                         : 1h 22mn
Bit rate                         : 64.1 Kbps
Channel(s)                       : 2 channels
Sampling rate                    : 44.1 KHz
Resolution                       : 16 bits
Stream size                      : 38.0 MiB (5%)
Interleave, duration             : 46 ms (1.16 video frame)
Interleave, preload duration     : 464 ms

Ajouter un commentaire

davkegti ↑ 129.38 GB ↓ 46.74 GB Ratio: 2,76

le probleme de cadrage est un probleme connu en fait Chabat ne s'est rendu compte du probleme qu'apres avoir fini l'interview principal. Mais comme c'est un fou il a decide de le laisser telquel.

oiuytr ↑ 424.09 GB ↓ 428.16 GB Ratio: 0,99

C'est cool , mais je crois qu'il ya eu un petit probleme d'image pendant le rip : trop zoomé.

Chelou mais bon ça se regarde quand même ...

Ou alors chabat a un petit probleme avec le cadrage ...

video56350 ↑ 113.06 GB ↓ 118.54 GB Ratio: 0,95

 merci pour ce torrent!

realstyle ↑ 164.74 GB ↓ 97.52 GB Ratio: 1,68

Merci  beaucoup ! Le suprême ne sera jamais égaler

warmachine666 ↑ 452.37 GB ↓ 498.09 GB Ratio: 0,90

Curieux de voir ça, merci

clusure ↑ 3.59 TB ↓ 1.42 TB Ratio: 2,52

merci

boxson ↑ 572.12 GB ↓ 280.66 GB Ratio: 2,03

Merci

peyru21 ↑ 162.41 GB ↓ 197.38 GB Ratio: 0,82

cimer le concert ct dla bombe!!!!!

tof601 ↑ 976.79 GB ↓ 1.24 TB Ratio: 0,77

un grand merci a toi

lotsid ↑ 1.36 TB ↓ 1011 GB Ratio: 1,37

Merci, ça faisait longtemps que je le cherchais !

zinoenzo ↑ 1.82 TB ↓ 1.36 TB Ratio: 1,33

mercie

zinoenzo ↑ 1.82 TB ↓ 1.36 TB Ratio: 1,33

mercie

loco07 ↑ 1.04 TB ↓ 1.14 TB Ratio: 0,90

Ce doc est énorme ésité pas a le prendre !!!

wiwi1303 ↑ 3.36 TB ↓ 4.27 TB Ratio: 0,78

Merci m'sieur

Télécharger "NTM : Un an avec le Supreme" en illimité a une vitesse de 1000 kbps grïâce aux 14 Jours d'essai gratuit offerts par Usenet.nl!
 
Loading...