New York Section Criminelle Saison 5 Vf TvRip URL Raccourcie

Télécharger "New York Section Criminelle Saison 5 Vf TvRip" en illimité a une vitesse de 1000 kbps grïâce aux 14 Jours d'essai gratuit offerts par Usenet.nl!
New York Section Criminelle






Origine de la serie : : Aucune Information ...
Titre original : Law & Order: Criminal Intent
Saison : 5
Episodes : 22
Top Série : Aucune Information ...
Statut : Série en production
Réalisateur : Dick Wolf, Rene Balcer
Acteurs : Vincent D'Onofrio, Saffron Burrows, Mary Elizabeth Mastrantonio
Genre : Policier
Durée : 42
Date de diffusion : : Première diffusion en France le 07 août 2002
Bande annonce : Aucune bande annonce disponible pour cette série ...


Une équipe de la police criminelle tentent d'élucider les crimes en essayant de cerner la psychologie des meurtriers.


Qualité : Tvrip
Format : AVi
Langue : Français
Tailles des fichiers : 21 x 350Mo
Taille total : 7350Mo



↓↓↓ New York Section Criminelle Saison 5 Vf TvRip ↓↓↓
 

www.usenet.nl

Seeders 36 Leechers 1 Téléchargements 2220
 
Télécharger Dire merci! Signaler
Voir la liste des membres qui vous remercient
↑↑↑ New York Section Criminelle Saison 5 Vf TvRip ↑↑↑

Informations

Nom New York Section Criminelle Saison 5 Vf TvRip
Torrent NewYork Section Criminelle S05 VF.torrent
Catégorie Série TV
Taille totale 7.17 GB
Info Hash d00e5fed9ee78aca3efdc18ea2d5207782cfc8f0
Uploadé par Anonymous
Uploadé le 2011-03-11 22:57:00 (+00:00)
Visites 2735
évaluation 4.8/5 (34 votes)

Liste des Fichiers

Path Size
NewYork Section Criminelle[5x03] - Victime ou bourreau.avi 399.99 MB
NewYork Section Criminelle[5x17] - Chambre libre.avi 350.49 MB
NewYork Section Criminelle[5x22] - La honte de la famille.avi 350.43 MB
NewYork Section Criminelle[5x19] - Le flambeur.avi 350.42 MB
NewYork Section Criminelle[5x18] - Sortilèges.avi 350.38 MB
NewYork Section Criminelle[5x07] - Le voile est levé.avi 350.36 MB
NewYork Section Criminelle[5x06] - Portées disparues.avi 350.31 MB
NewYork Section Criminelle[5x20] - Machines à tuer.avi 350.26 MB
NewYork Section Criminelle[5x08] - Sauver la face.avi 350.24 MB
NewYork Section Criminelle[5x09] - Mélodie macabre.avi 350.05 MB
NewYork Section Criminelle[5x11] - La beauté du meutre.avi 350.04 MB
NewYork Section Criminelle[5x12] - Aller simple pour l'enfer.avi 350.04 MB
NewYork Section Criminelle[5x02] - La déchéance.avi 350.03 MB
NewYork Section Criminelle[5x04] - Erreur sur la personne.avi 350.03 MB
NewYork Section Criminelle[5x15] - Une vie par erreur.avi 350.02 MB
NewYork Section Criminelle[5x21] - Le feu aux poudres.avi 350.01 MB
NewYork Section Criminelle[5x05] - Pénitence.avi 349.95 MB
NewYork Section Criminelle[5x14] - En service commandé.avi 349.89 MB
NewYork Section Criminelle[5x16] - Le rideau tombe.avi 349.8 MB
NewYork Section Criminelle[5x10] - L'enfant chéri.avi 320.17 MB
NewYork Section Criminelle[5x13] - Pour l'honneur de la famille.avi 319.29 MB
NFO.nfo 52.97 KB

Voir le NFO

General
Complete name                    : NewYork Section Criminelle[5x02] - La déchéance.avi
Format                           : AVI
Format/Info                      : Audio Video Interleave
File size                        : 350 MiB
Duration                         : 42mn 0s
Overall bit rate                 : 1 165 Kbps
Movie name                       : New York section criminelle - [5x02] - La Déchéance BY ADVRIP
Director                         : ALBERT DIVX VIDEO  2006
Writing application              : ftp://-adv:10000@albert88000.org/serie-adv.html
Writing library                  : VirtualDubMod build 2178/release
Copyright                        : ( ALBERT DIVX VIDEO = ADVRIP VOSGES EPINAL 88000 )

Video
ID                               : 0
Format                           : MPEG-4 Visual
Format settings, BVOP            : No
Format settings, QPel            : No
Format settings, GMC             : No warppoints
Format settings, Matrix          : Default (H.263)
Codec ID                         : DX50
Codec ID/Hint                    : DivX 5
Duration                         : 42mn 0s
Bit rate                         : 1 094 Kbps
Width                            : 704 pixels
Height                           : 528 pixels
Display aspect ratio             : 4:3
Frame rate                       : 25.000 fps
Color space                      : YUV
Chroma subsampling               : 4:2:0
Bit depth                        : 8 bits
Scan type                        : Progressive
Compression mode                 : Lossy
Bits/(Pixel*Frame)               : 0.118
Stream size                      : 329 MiB (94%)
Writing library                  : DivX 5.2.1 (WaffleDay) (UTC 2004-09-08)

Audio
ID                               : 1
Format                           : MPEG Audio
Format version                   : Version 2
Format profile                   : Layer 3
Mode                             : Joint stereo
Mode extension                   : MS Stereo
Codec ID                         : 55
Codec ID/Hint                    : MP3
Duration                         : 42mn 0s
Bit rate mode                    : Constant
Bit rate                         : 64.0 Kbps
Channel(s)                       : 2 channels
Sampling rate                    : 24.0 KHz
Compression mode                 : Lossy
Stream size                      : 19.2 MiB (5%)
Alignment                        : Aligned on interleaves
Interleave, duration             : 80 ms (2.00 video frames)
Interleave, preload duration     : 504 ms
Writing library                  : LAME3.97b
Encoding settings                : -m j -V 4 -q 2 -lowpass 11 -b 64

----------------------------------------------------------

General
Complete name                    : NewYork Section Criminelle[5x03] - Victime ou bourreau.avi
Format                           : AVI
Format/Info                      : Audio Video Interleave
File size                        : 400 MiB
Duration                         : 41mn 58s
Overall bit rate                 : 1 333 Kbps
Writing application              : VirtualDubMod 1.5.4.1 (build 2178/release)
Writing library                  : VirtualDubMod build 2178/release

Video
ID                               : 0
Format                           : MPEG-4 Visual
Format settings, BVOP            : No
Format settings, QPel            : No
Format settings, GMC             : No warppoints
Format settings, Matrix          : Default (H.263)
Codec ID                         : DX50
Codec ID/Hint                    : DivX 5
Duration                         : 41mn 58s
Bit rate                         : 1 229 Kbps
Width                            : 720 pixels
Height                           : 416 pixels
Display aspect ratio             : 16:9
Frame rate                       : 25.000 fps
Color space                      : YUV
Chroma subsampling               : 4:2:0
Bit depth                        : 8 bits
Scan type                        : Progressive
Compression mode                 : Lossy
Bits/(Pixel*Frame)               : 0.164
Stream size                      : 369 MiB (92%)
Writing library                  : DivX 5.2.1 (WaffleDay) (UTC 2004-09-08)

Audio
ID                               : 1
Format                           : MPEG Audio
Format version                   : Version 1
Format profile                   : Layer 3
Mode                             : Joint stereo
Mode extension                   : MS Stereo
Codec ID                         : 55
Codec ID/Hint                    : MP3
Duration                         : 41mn 58s
Bit rate mode                    : Constant
Bit rate                         : 96.0 Kbps
Channel(s)                       : 2 channels
Sampling rate                    : 32.0 KHz
Compression mode                 : Lossy
Stream size                      : 28.8 MiB (7%)
Alignment                        : Aligned on interleaves
Interleave, duration             : 80 ms (2.00 video frames)
Interleave, preload duration     : 504 ms
Writing library                  : LAME3.97b
Encoding settings                : -m j -V 4 -q 2 -lowpass 15.1 -b 96

----------------------------------------------------------

General
Complete name                    : NewYork Section Criminelle[5x04] - Erreur sur la personne.avi
Format                           : AVI
Format/Info                      : Audio Video Interleave
File size                        : 350 MiB
Duration                         : 41mn 40s
Overall bit rate                 : 1 174 Kbps
Movie name                       : NYSC - [5x04] - Erreur sur la personne BY ADVRIP
Director                         : ALBERT DIVX VIDEO  2006
Writing application              : ftp://-adv:10000@albert88000.org/serie-adv.html
Writing library                  : VirtualDubMod build 2178/release
Copyright                        : ( ALBERT DIVX VIDEO = ADVRIP VOSGES EPINAL 88000 )

Video
ID                               : 0
Format                           : MPEG-4 Visual
Format settings, BVOP            : No
Format settings, QPel            : No
Format settings, GMC             : No warppoints
Format settings, Matrix          : Default (H.263)
Codec ID                         : DX50
Codec ID/Hint                    : DivX 5
Duration                         : 41mn 40s
Bit rate                         : 1 103 Kbps
Width                            : 704 pixels
Height                           : 528 pixels
Display aspect ratio             : 4:3
Frame rate                       : 25.000 fps
Color space                      : YUV
Chroma subsampling               : 4:2:0
Bit depth                        : 8 bits
Scan type                        : Progressive
Compression mode                 : Lossy
Bits/(Pixel*Frame)               : 0.119
Stream size                      : 329 MiB (94%)
Writing library                  : DivX 5.2.1 (WaffleDay) (UTC 2004-09-08)

Audio
ID                               : 1
Format                           : MPEG Audio
Format version                   : Version 2
Format profile                   : Layer 3
Mode                             : Joint stereo
Mode extension                   : MS Stereo
Codec ID                         : 55
Codec ID/Hint                    : MP3
Duration                         : 41mn 40s
Bit rate mode                    : Constant
Bit rate                         : 64.0 Kbps
Channel(s)                       : 2 channels
Sampling rate                    : 24.0 KHz
Compression mode                 : Lossy
Stream size                      : 19.1 MiB (5%)
Alignment                        : Aligned on interleaves
Interleave, duration             : 80 ms (2.00 video frames)
Interleave, preload duration     : 504 ms
Writing library                  : LAME3.97b
Encoding settings                : -m j -V 4 -q 2 -lowpass 11 -b 64

----------------------------------------------------------

General
Complete name                    : NewYork Section Criminelle[5x05] - Pénitence.avi
Format                           : AVI
Format/Info                      : Audio Video Interleave
File size                        : 350 MiB
Duration                         : 41mn 9s
Overall bit rate                 : 1 189 Kbps
Movie name                       : New York section criminelle - [5x05] - Pénitence BY ADVRIP
Director                         : ALBERT DIVX VIDEO  2006
Writing application              : ftp://-adv:10000@albert88000.org/serie-adv.html
Writing library                  : VirtualDubMod build 2178/release
Copyright                        : ( ALBERT DIVX VIDEO = ADVRIP VOSGES EPINAL 88000 )

Video
ID                               : 0
Format                           : MPEG-4 Visual
Format settings, BVOP            : No
Format settings, QPel            : No
Format settings, GMC             : No warppoints
Format settings, Matrix          : Default (H.263)
Codec ID                         : DX50
Codec ID/Hint                    : DivX 5
Duration                         : 41mn 9s
Bit rate                         : 1 117 Kbps
Width                            : 704 pixels
Height                           : 528 pixels
Display aspect ratio             : 4:3
Frame rate                       : 25.000 fps
Color space                      : YUV
Chroma subsampling               : 4:2:0
Bit depth                        : 8 bits
Scan type                        : Progressive
Compression mode                 : Lossy
Bits/(Pixel*Frame)               : 0.120
Stream size                      : 329 MiB (94%)
Writing library                  : DivX 5.2.1 (WaffleDay) (UTC 2004-09-08)

Audio
ID                               : 1
Format                           : MPEG Audio
Format version                   : Version 2
Format profile                   : Layer 3
Mode                             : Joint stereo
Mode extension                   : MS Stereo
Codec ID                         : 55
Codec ID/Hint                    : MP3
Duration                         : 41mn 9s
Bit rate mode                    : Constant
Bit rate                         : 64.0 Kbps
Channel(s)                       : 2 channels
Sampling rate                    : 24.0 KHz
Compression mode                 : Lossy
Stream size                      : 18.8 MiB (5%)
Alignment                        : Aligned on interleaves
Interleave, duration             : 80 ms (2.00 video frames)
Interleave, preload duration     : 504 ms
Writing library                  : LAME3.97b
Encoding settings                : -m j -V 4 -q 2 -lowpass 11 -b 64

----------------------------------------------------------

General
Complete name                    : NewYork Section Criminelle[5x06] - Portées disparues.avi
Format                           : AVI
Format/Info                      : Audio Video Interleave
File size                        : 350 MiB
Duration                         : 41mn 43s
Overall bit rate                 : 1 174 Kbps
Writing application              : VirtualDubMod 1.5.10.1 (build 2366/release)
Writing library                  : VirtualDubMod build 2366/release

Video
ID                               : 0
Format                           : MPEG-4 Visual
Format profile                   : Advanced Simple@L5
Format settings, BVOP            : 2
Format settings, QPel            : No
Format settings, GMC             : No warppoints
Format settings, Matrix          : Default (H.263)
Muxing mode                      : Packed bitstream
Codec ID                         : XVID
Codec ID/Hint                    : XviD
Duration                         : 41mn 43s
Bit rate                         : 1 036 Kbps
Width                            : 512 pixels
Height                           : 288 pixels
Display aspect ratio             : 16:9
Frame rate                       : 25.000 fps
Color space                      : YUV
Chroma subsampling               : 4:2:0
Bit depth                        : 8 bits
Scan type                        : Progressive
Compression mode                 : Lossy
Bits/(Pixel*Frame)               : 0.281
Stream size                      : 309 MiB (88%)
Writing library                  : XviD 1.1.0 Beta1 (UTC 2005-01-16)

Audio
ID                               : 1
Format                           : MPEG Audio
Format version                   : Version 1
Format profile                   : Layer 3
Codec ID                         : 55
Codec ID/Hint                    : MP3
Duration                         : 41mn 43s
Bit rate mode                    : Constant
Bit rate                         : 128 Kbps
Channel(s)                       : 2 channels
Sampling rate                    : 32.0 KHz
Compression mode                 : Lossy
Stream size                      : 38.2 MiB (11%)
Alignment                        : Aligned on interleaves
Interleave, duration             : 40 ms (1.00 video frame)
Interleave, preload duration     : 504 ms
Writing library                  : LAME3.95 
Encoding settings                : -m s -V 4 -q 2 -lowpass 16 -b 128

----------------------------------------------------------

General
Complete name                    : NewYork Section Criminelle[5x07] - Le voile est levé.avi
Format                           : AVI
Format/Info                      : Audio Video Interleave
File size                        : 350 MiB
Duration                         : 41mn 39s
Overall bit rate                 : 1 176 Kbps
Writing application              : VirtualDubMod 1.5.10.1 (build 2366/release)
Writing library                  : VirtualDubMod build 2366/release

Video
ID                               : 0
Format                           : MPEG-4 Visual
Format profile                   : Advanced Simple@L5
Format settings, BVOP            : 2
Format settings, QPel            : No
Format settings, GMC             : No warppoints
Format settings, Matrix          : Default (H.263)
Muxing mode                      : Packed bitstream
Codec ID                         : XVID
Codec ID/Hint                    : XviD
Duration                         : 41mn 39s
Bit rate                         : 1 038 Kbps
Width                            : 512 pixels
Height                           : 288 pixels
Display aspect ratio             : 16:9
Frame rate                       : 25.000 fps
Color space                      : YUV
Chroma subsampling               : 4:2:0
Bit depth                        : 8 bits
Scan type                        : Progressive
Compression mode                 : Lossy
Bits/(Pixel*Frame)               : 0.282
Stream size                      : 309 MiB (88%)
Writing library                  : XviD 1.1.0 Beta1 (UTC 2005-01-16)

Audio
ID                               : 1
Format                           : MPEG Audio
Format version                   : Version 1
Format profile                   : Layer 3
Codec ID                         : 55
Codec ID/Hint                    : MP3
Duration                         : 41mn 39s
Bit rate mode                    : Constant
Bit rate                         : 128 Kbps
Channel(s)                       : 2 channels
Sampling rate                    : 32.0 KHz
Compression mode                 : Lossy
Stream size                      : 38.1 MiB (11%)
Alignment                        : Aligned on interleaves
Interleave, duration             : 40 ms (1.00 video frame)
Interleave, preload duration     : 504 ms
Writing library                  : LAME3.95 
Encoding settings                : -m s -V 4 -q 2 -lowpass 16 -b 128

----------------------------------------------------------

General
Complete name                    : NewYork Section Criminelle[5x08] - Sauver la face.avi
Format                           : AVI
Format/Info                      : Audio Video Interleave
File size                        : 350 MiB
Duration                         : 41mn 36s
Overall bit rate                 : 1 177 Kbps
Writing application              : VirtualDubMod 1.5.10.1 (build 2366/release)
Writing library                  : VirtualDubMod build 2366/release

Video
ID                               : 0
Format                           : MPEG-4 Visual
Format profile                   : Advanced Simple@L5
Format settings, BVOP            : 2
Format settings, QPel            : No
Format settings, GMC             : No warppoints
Format settings, Matrix          : Default (H.263)
Muxing mode                      : Packed bitstream
Codec ID                         : XVID
Codec ID/Hint                    : XviD
Duration                         : 41mn 36s
Bit rate                         : 1 039 Kbps
Width                            : 512 pixels
Height                           : 288 pixels
Display aspect ratio             : 16:9
Frame rate                       : 25.000 fps
Color space                      : YUV
Chroma subsampling               : 4:2:0
Bit depth                        : 8 bits
Scan type                        : Progressive
Compression mode                 : Lossy
Bits/(Pixel*Frame)               : 0.282
Stream size                      : 309 MiB (88%)
Writing library                  : XviD 1.1.0 Beta1 (UTC 2005-01-16)

Audio
ID                               : 1
Format                           : MPEG Audio
Format version                   : Version 1
Format profile                   : Layer 3
Codec ID                         : 55
Codec ID/Hint                    : MP3
Duration                         : 41mn 36s
Bit rate mode                    : Constant
Bit rate                         : 128 Kbps
Channel(s)                       : 2 channels
Sampling rate                    : 32.0 KHz
Compression mode                 : Lossy
Stream size                      : 38.1 MiB (11%)
Alignment                        : Aligned on interleaves
Interleave, duration             : 40 ms (1.00 video frame)
Interleave, preload duration     : 504 ms
Writing library                  : LAME3.95 
Encoding settings                : -m s -V 4 -q 2 -lowpass 16 -b 128

----------------------------------------------------------

General
Complete name                    : NewYork Section Criminelle[5x09] - Mélodie macabre.avi
Format                           : AVI
Format/Info                      : Audio Video Interleave
File size                        : 350 MiB
Duration                         : 41mn 40s
Overall bit rate                 : 1 174 Kbps
Movie name                       : New York section criminelle - [5x09] - Mélodie macabre BY ADVRI
Director                         : ALBERT DIVX VIDEO  2006
Writing application              : ftp://-adv:10000@albert88000.org/serie-adv.html
Writing library                  : VirtualDubMod build 2178/release
Copyright                        : ( ALBERT DIVX VIDEO = ADVRIP VOSGES EPINAL 88000 )

Video
ID                               : 0
Format                           : MPEG-4 Visual
Format settings, BVOP            : No
Format settings, QPel            : No
Format settings, GMC             : No warppoints
Format settings, Matrix          : Default (H.263)
Codec ID                         : DX50
Codec ID/Hint                    : DivX 5
Duration                         : 41mn 40s
Bit rate                         : 1 103 Kbps
Width                            : 704 pixels
Height                           : 528 pixels
Display aspect ratio             : 4:3
Frame rate                       : 25.000 fps
Color space                      : YUV
Chroma subsampling               : 4:2:0
Bit depth                        : 8 bits
Scan type                        : Progressive
Compression mode                 : Lossy
Bits/(Pixel*Frame)               : 0.119
Stream size                      : 329 MiB (94%)
Writing library                  : DivX 5.2.1 (WaffleDay) (UTC 2004-09-08)

Audio
ID                               : 1
Format                           : MPEG Audio
Format version                   : Version 2
Format profile                   : Layer 3
Mode                             : Joint stereo
Mode extension                   : MS Stereo
Codec ID                         : 55
Codec ID/Hint                    : MP3
Duration                         : 41mn 40s
Bit rate mode                    : Constant
Bit rate                         : 64.0 Kbps
Channel(s)                       : 2 channels
Sampling rate                    : 24.0 KHz
Compression mode                 : Lossy
Stream size                      : 19.1 MiB (5%)
Alignment                        : Aligned on interleaves
Interleave, duration             : 80 ms (2.00 video frames)
Interleave, preload duration     : 504 ms
Writing library                  : LAME3.97b
Encoding settings                : -m j -V 4 -q 2 -lowpass 11 -b 64

----------------------------------------------------------

General
Complete name                    : NewYork Section Criminelle[5x10] - L'enfant chéri.avi
Format                           : AVI
Format/Info                      : Audio Video Interleave
File size                        : 320 MiB
Duration                         : 41mn 40s
Overall bit rate                 : 1 074 Kbps
Writing application              : VirtualDubMod 1.5.10.2 (build 2540/release)
Writing library                  : VirtualDubMod build 2540/release

Video
ID                               : 0
Format                           : MPEG-4 Visual
Format settings, BVOP            : 1
Format settings, QPel            : No
Format settings, GMC             : No warppoints
Format settings, Matrix          : Default (H.263)
Muxing mode                      : Packed bitstream
Codec ID                         : DX50
Codec ID/Hint                    : DivX 5
Duration                         : 41mn 40s
Bit rate                         : 936 Kbps
Width                            : 512 pixels
Height                           : 384 pixels
Display aspect ratio             : 4:3
Frame rate                       : 25.000 fps
Color space                      : YUV
Chroma subsampling               : 4:2:0
Bit depth                        : 8 bits
Scan type                        : Progressive
Compression mode                 : Lossy
Bits/(Pixel*Frame)               : 0.190
Stream size                      : 279 MiB (87%)
Writing library                  : DivX 1974

Audio
ID                               : 1
Format                           : MPEG Audio
Format version                   : Version 1
Format profile                   : Layer 3
Mode                             : Joint stereo
Mode extension                   : MS Stereo
Codec ID                         : 55
Codec ID/Hint                    : MP3
Duration                         : 41mn 40s
Bit rate mode                    : Constant
Bit rate                         : 128 Kbps
Channel(s)                       : 2 channels
Sampling rate                    : 48.0 KHz
Compression mode                 : Lossy
Delay relative to video          : 48ms
Stream size                      : 38.2 MiB (12%)
Alignment                        : Aligned on interleaves
Interleave, duration             : 40 ms (1.00 video frame)
Interleave, preload duration     : 504 ms

----------------------------------------------------------

General
Complete name                    : NewYork Section Criminelle[5x11] - La beauté du meutre.avi
Format                           : AVI
Format/Info                      : Audio Video Interleave
File size                        : 350 MiB
Duration                         : 41mn 36s
Overall bit rate                 : 1 176 Kbps
Writing application              : VirtualDubMod 1.5.4.1 (build 2178/release)
Writing library                  : VirtualDubMod build 2178/release

Video
ID                               : 0
Format                           : MPEG-4 Visual
Format settings, BVOP            : No
Format settings, QPel            : No
Format settings, GMC             : No warppoints
Format settings, Matrix          : Default (H.263)
Codec ID                         : DX50
Codec ID/Hint                    : DivX 5
Duration                         : 41mn 36s
Bit rate                         : 1 073 Kbps
Width                            : 720 pixels
Height                           : 544 pixels
Display aspect ratio             : 4:3
Frame rate                       : 25.000 fps
Color space                      : YUV
Chroma subsampling               : 4:2:0
Bit depth                        : 8 bits
Scan type                        : Progressive
Compression mode                 : Lossy
Bits/(Pixel*Frame)               : 0.110
Stream size                      : 319 MiB (91%)
Writing library                  : DivX 5.2.1 (WaffleDay) (UTC 2004-09-08)

Audio
ID                               : 1
Format                           : MPEG Audio
Format version                   : Version 1
Format profile                   : Layer 3
Mode                             : Joint stereo
Mode extension                   : MS Stereo
Codec ID                         : 55
Codec ID/Hint                    : MP3
Duration                         : 41mn 35s
Bit rate mode                    : Constant
Bit rate                         : 96.0 Kbps
Channel(s)                       : 2 channels
Sampling rate                    : 32.0 KHz
Compression mode                 : Lossy
Stream size                      : 28.6 MiB (8%)
Alignment                        : Aligned on interleaves
Interleave, duration             : 80 ms (2.00 video frames)
Interleave, preload duration     : 504 ms
Writing library                  : LAME3.97b
Encoding settings                : -m j -V 4 -q 2 -lowpass 15.1 -b 96

----------------------------------------------------------

General
Complete name                    : NewYork Section Criminelle[5x12] - Aller simple pour l'enfer.avi
Format                           : AVI
Format/Info                      : Audio Video Interleave
File size                        : 350 MiB
Duration                         : 41mn 37s
Overall bit rate                 : 1 176 Kbps
Movie name                       : NYSC - [5x12] - Aller simple pour l'enfer BY ADVRIP
Director                         : ALBERT DIVX VIDEO  2006
Writing application              : ftp://-adv:10000@albert88000.org/serie-adv.html
Writing library                  : VirtualDubMod build 2178/release
Copyright                        : ( ALBERT DIVX VIDEO = ADVRIP VOSGES EPINAL 88000 )

Video
ID                               : 0
Format                           : MPEG-4 Visual
Format settings, BVOP            : No
Format settings, QPel            : No
Format settings, GMC             : No warppoints
Format settings, Matrix          : Default (H.263)
Codec ID                         : DX50
Codec ID/Hint                    : DivX 5
Duration                         : 41mn 37s
Bit rate                         : 1 104 Kbps
Width                            : 704 pixels
Height                           : 528 pixels
Display aspect ratio             : 4:3
Frame rate                       : 25.000 fps
Color space                      : YUV
Chroma subsampling               : 4:2:0
Bit depth                        : 8 bits
Scan type                        : Progressive
Compression mode                 : Lossy
Bits/(Pixel*Frame)               : 0.119
Stream size                      : 329 MiB (94%)
Writing library                  : DivX 5.2.1 (WaffleDay) (UTC 2004-09-08)

Audio
ID                               : 1
Format                           : MPEG Audio
Format version                   : Version 2
Format profile                   : Layer 3
Mode                             : Joint stereo
Mode extension                   : MS Stereo
Codec ID                         : 55
Codec ID/Hint                    : MP3
Duration                         : 41mn 37s
Bit rate mode                    : Constant
Bit rate                         : 64.0 Kbps
Channel(s)                       : 2 channels
Sampling rate                    : 24.0 KHz
Compression mode                 : Lossy
Stream size                      : 19.1 MiB (5%)
Alignment                        : Aligned on interleaves
Interleave, duration             : 80 ms (2.00 video frames)
Interleave, preload duration     : 504 ms
Writing library                  : LAME3.97b
Encoding settings                : -m j -V 4 -q 2 -lowpass 11 -b 64

----------------------------------------------------------

General
Complete name                    : NewYork Section Criminelle[5x13] - Pour l'honneur de la famille.avi
Format                           : AVI
Format/Info                      : Audio Video Interleave
File size                        : 319 MiB
Duration                         : 41mn 38s
Overall bit rate                 : 1 072 Kbps
Writing application              : VirtualDubMod 1.5.10.2 (build 2540/release)
Writing library                  : VirtualDubMod build 2540/release

Video
ID                               : 0
Format                           : MPEG-4 Visual
Format settings, BVOP            : 1
Format settings, QPel            : No
Format settings, GMC             : No warppoints
Format settings, Matrix          : Default (H.263)
Muxing mode                      : Packed bitstream
Codec ID                         : DX50
Codec ID/Hint                    : DivX 5
Duration                         : 41mn 38s
Bit rate                         : 934 Kbps
Width                            : 512 pixels
Height                           : 384 pixels
Display aspect ratio             : 4:3
Frame rate                       : 25.000 fps
Color space                      : YUV
Chroma subsampling               : 4:2:0
Bit depth                        : 8 bits
Scan type                        : Progressive
Compression mode                 : Lossy
Bits/(Pixel*Frame)               : 0.190
Stream size                      : 278 MiB (87%)
Writing library                  : DivX 1974

Audio
ID                               : 1
Format                           : MPEG Audio
Format version                   : Version 1
Format profile                   : Layer 3
Mode                             : Joint stereo
Mode extension                   : MS Stereo
Codec ID                         : 55
Codec ID/Hint                    : MP3
Duration                         : 41mn 38s
Bit rate mode                    : Constant
Bit rate                         : 128 Kbps
Channel(s)                       : 2 channels
Sampling rate                    : 48.0 KHz
Compression mode                 : Lossy
Delay relative to video          : 48ms
Stream size                      : 38.1 MiB (12%)
Alignment                        : Aligned on interleaves
Interleave, duration             : 40 ms (1.00 video frame)
Interleave, preload duration     : 504 ms

----------------------------------------------------------

General
Complete name                    : NewYork Section Criminelle[5x14] - En service commandé.avi
Format                           : AVI
Format/Info                      : Audio Video Interleave
File size                        : 350 MiB
Duration                         : 41mn 43s
Overall bit rate                 : 1 172 Kbps
Writing application              : VirtualDubMod 1.5.10.1 (build 2366/release)
Writing library                  : VirtualDubMod build 2366/release

Video
ID                               : 0
Format                           : MPEG-4 Visual
Format profile                   : Advanced Simple@L5
Format settings, BVOP            : 2
Format settings, QPel            : No
Format settings, GMC             : No warppoints
Format settings, Matrix          : Default (MPEG)
Muxing mode                      : Packed bitstream
Codec ID                         : XVID
Codec ID/Hint                    : XviD
Duration                         : 41mn 43s
Bit rate                         : 1 035 Kbps
Width                            : 512 pixels
Height                           : 288 pixels
Display aspect ratio             : 16:9
Frame rate                       : 25.000 fps
Color space                      : YUV
Chroma subsampling               : 4:2:0
Bit depth                        : 8 bits
Scan type                        : Progressive
Compression mode                 : Lossy
Bits/(Pixel*Frame)               : 0.281
Stream size                      : 309 MiB (88%)
Writing library                  : XviD 1.1.0 Beta1 (UTC 2005-01-16)

Audio
ID                               : 1
Format                           : MPEG Audio
Format version                   : Version 1
Format profile                   : Layer 3
Codec ID                         : 55
Codec ID/Hint                    : MP3
Duration                         : 41mn 43s
Bit rate mode                    : Constant
Bit rate                         : 128 Kbps
Channel(s)                       : 2 channels
Sampling rate                    : 48.0 KHz
Compression mode                 : Lossy
Stream size                      : 38.2 MiB (11%)
Alignment                        : Aligned on interleaves
Interleave, duration             : 40 ms (1.00 video frame)
Interleave, preload duration     : 504 ms
Writing library                  : LAME3.95 
Encoding settings                : -m s -V 4 -q 2 -lowpass 17.5 -b 128

----------------------------------------------------------

General
Complete name                    : NewYork Section Criminelle[5x15] - Une vie par erreur.avi
Format                           : AVI
Format/Info                      : Audio Video Interleave
File size                        : 350 MiB
Duration                         : 41mn 35s
Overall bit rate                 : 1 177 Kbps
Movie name                       : NYSC - [5x15] - Une vie par erreur BY ADVRIP
Director                         : ALBERT DIVX VIDEO  2006-
Writing application              : ftp://-adv:10000@albert88000.org/serie-adv.html
Writing library                  : VirtualDubMod build 2178/release
Copyright                        : ( ALBERT DIVX VIDEO = ADVRIP VOSGES EPINAL 88000 )

Video
ID                               : 0
Format                           : MPEG-4 Visual
Format settings, BVOP            : No
Format settings, QPel            : No
Format settings, GMC             : No warppoints
Format settings, Matrix          : Default (H.263)
Codec ID                         : DX50
Codec ID/Hint                    : DivX 5
Duration                         : 41mn 35s
Bit rate                         : 1 105 Kbps
Width                            : 704 pixels
Height                           : 528 pixels
Display aspect ratio             : 4:3
Frame rate                       : 25.000 fps
Color space                      : YUV
Chroma subsampling               : 4:2:0
Bit depth                        : 8 bits
Scan type                        : Progressive
Compression mode                 : Lossy
Bits/(Pixel*Frame)               : 0.119
Stream size                      : 329 MiB (94%)
Writing library                  : DivX 5.2.1 (WaffleDay) (UTC 2004-09-08)

Audio
ID                               : 1
Format                           : MPEG Audio
Format version                   : Version 2
Format profile                   : Layer 3
Mode                             : Joint stereo
Mode extension                   : MS Stereo
Codec ID                         : 55
Codec ID/Hint                    : MP3
Duration                         : 41mn 35s
Bit rate mode                    : Constant
Bit rate                         : 64.0 Kbps
Channel(s)                       : 2 channels
Sampling rate                    : 24.0 KHz
Compression mode                 : Lossy
Stream size                      : 19.0 MiB (5%)
Alignment                        : Aligned on interleaves
Interleave, duration             : 80 ms (2.00 video frames)
Interleave, preload duration     : 504 ms
Writing library                  : LAME3.97b
Encoding settings                : -m j -V 4 -q 2 -lowpass 11 -b 64

----------------------------------------------------------

General
Complete name                    : NewYork Section Criminelle[5x16] - Le rideau tombe.avi
Format                           : AVI
Format/Info                      : Audio Video Interleave
File size                        : 350 MiB
Duration                         : 41mn 45s
Overall bit rate                 : 1 171 Kbps
Writing application              : VirtualDubMod 1.5.10.1 (build 2366/release)
Writing library                  : VirtualDubMod build 2366/release

Video
ID                               : 0
Format                           : MPEG-4 Visual
Format profile                   : Advanced Simple@L5
Format settings, BVOP            : 2
Format settings, QPel            : No
Format settings, GMC             : No warppoints
Format settings, Matrix          : Default (MPEG)
Muxing mode                      : Packed bitstream
Codec ID                         : XVID
Codec ID/Hint                    : XviD
Duration                         : 41mn 45s
Bit rate                         : 1 034 Kbps
Width                            : 512 pixels
Height                           : 288 pixels
Display aspect ratio             : 16:9
Frame rate                       : 25.000 fps
Color space                      : YUV
Chroma subsampling               : 4:2:0
Bit depth                        : 8 bits
Scan type                        : Progressive
Compression mode                 : Lossy
Bits/(Pixel*Frame)               : 0.280
Stream size                      : 309 MiB (88%)
Writing library                  : XviD 1.1.0 Beta1 (UTC 2005-01-16)

Audio
ID                               : 1
Format                           : MPEG Audio
Format version                   : Version 1
Format profile                   : Layer 3
Codec ID                         : 55
Codec ID/Hint                    : MP3
Duration                         : 41mn 45s
Bit rate mode                    : Constant
Bit rate                         : 128 Kbps
Channel(s)                       : 2 channels
Sampling rate                    : 48.0 KHz
Compression mode                 : Lossy
Stream size                      : 38.2 MiB (11%)
Alignment                        : Aligned on interleaves
Interleave, duration             : 40 ms (1.00 video frame)
Interleave, preload duration     : 504 ms
Writing library                  : LAME3.95 
Encoding settings                : -m s -V 4 -q 2 -lowpass 17.5 -b 128

----------------------------------------------------------

General
Complete name                    : NewYork Section Criminelle[5x17] - Chambre libre.avi
Format                           : AVI
Format/Info                      : Audio Video Interleave
File size                        : 350 MiB
Duration                         : 41mn 47s
Overall bit rate                 : 1 173 Kbps
Writing application              : VirtualDubMod 1.5.10.1 (build 2366/release)
Writing library                  : VirtualDubMod build 2366/release

Video
ID                               : 0
Format                           : MPEG-4 Visual
Format profile                   : Advanced Simple@L5
Format settings, BVOP            : 1
Format settings, QPel            : No
Format settings, GMC             : No warppoints
Format settings, Matrix          : Default (H.263)
Muxing mode                      : Packed bitstream
Codec ID                         : XVID
Codec ID/Hint                    : XviD
Duration                         : 41mn 47s
Bit rate                         : 1 035 Kbps
Width                            : 512 pixels
Height                           : 288 pixels
Display aspect ratio             : 16:9
Frame rate                       : 25.000 fps
Color space                      : YUV
Chroma subsampling               : 4:2:0
Bit depth                        : 8 bits
Scan type                        : Progressive
Compression mode                 : Lossy
Bits/(Pixel*Frame)               : 0.281
Stream size                      : 309 MiB (88%)
Writing library                  : XviD 1.1.0 Beta1 (UTC 2005-01-16)

Audio
ID                               : 1
Format                           : MPEG Audio
Format version                   : Version 1
Format profile                   : Layer 3
Codec ID                         : 55
Codec ID/Hint                    : MP3
Duration                         : 41mn 47s
Bit rate mode                    : Constant
Bit rate                         : 128 Kbps
Channel(s)                       : 2 channels
Sampling rate                    : 48.0 KHz
Compression mode                 : Lossy
Stream size                      : 38.3 MiB (11%)
Alignment                        : Aligned on interleaves
Interleave, duration             : 40 ms (1.00 video frame)
Interleave, preload duration     : 504 ms
Writing library                  : LAME3.95 
Encoding settings                : -m s -V 4 -q 2 -lowpass 17.5 -b 128

----------------------------------------------------------

General
Complete name                    : NewYork Section Criminelle[5x18] - Sortilèges.avi
Format                           : AVI
Format/Info                      : Audio Video Interleave
File size                        : 350 MiB
Duration                         : 41mn 42s
Overall bit rate                 : 1 175 Kbps
Writing application              : VirtualDubMod 1.5.10.1 (build 2366/release)
Writing library                  : VirtualDubMod build 2366/release

Video
ID                               : 0
Format                           : MPEG-4 Visual
Format profile                   : Advanced Simple@L5
Format settings, BVOP            : 1
Format settings, QPel            : No
Format settings, GMC             : No warppoints
Format settings, Matrix          : Default (H.263)
Muxing mode                      : Packed bitstream
Codec ID                         : XVID
Codec ID/Hint                    : XviD
Duration                         : 41mn 42s
Bit rate                         : 1 037 Kbps
Width                            : 512 pixels
Height                           : 288 pixels
Display aspect ratio             : 16:9
Frame rate                       : 25.000 fps
Color space                      : YUV
Chroma subsampling               : 4:2:0
Bit depth                        : 8 bits
Scan type                        : Progressive
Compression mode                 : Lossy
Bits/(Pixel*Frame)               : 0.281
Stream size                      : 309 MiB (88%)
Writing library                  : XviD 1.1.0 Beta1 (UTC 2005-01-16)

Audio
ID                               : 1
Format                           : MPEG Audio
Format version                   : Version 1
Format profile                   : Layer 3
Codec ID                         : 55
Codec ID/Hint                    : MP3
Duration                         : 41mn 42s
Bit rate mode                    : Constant
Bit rate                         : 128 Kbps
Channel(s)                       : 2 channels
Sampling rate                    : 48.0 KHz
Compression mode                 : Lossy
Stream size                      : 38.2 MiB (11%)
Alignment                        : Aligned on interleaves
Interleave, duration             : 40 ms (1.00 video frame)
Interleave, preload duration     : 504 ms
Writing library                  : LAME3.95 
Encoding settings                : -m s -V 4 -q 2 -lowpass 17.5 -b 128

----------------------------------------------------------

General
Complete name                    : NewYork Section Criminelle[5x19] - Le flambeur.avi
Format                           : AVI
Format/Info                      : Audio Video Interleave
File size                        : 350 MiB
Duration                         : 41mn 11s
Overall bit rate                 : 1 189 Kbps
Writing application              : VirtualDubMod 1.5.10.1 (build 2366/release)
Writing library                  : VirtualDubMod build 2366/release

Video
ID                               : 0
Format                           : MPEG-4 Visual
Format profile                   : Advanced Simple@L5
Format settings, BVOP            : 1
Format settings, QPel            : No
Format settings, GMC             : No warppoints
Format settings, Matrix          : Default (H.263)
Muxing mode                      : Packed bitstream
Codec ID                         : XVID
Codec ID/Hint                    : XviD
Duration                         : 41mn 11s
Bit rate                         : 1 052 Kbps
Width                            : 512 pixels
Height                           : 288 pixels
Display aspect ratio             : 16:9
Frame rate                       : 25.000 fps
Color space                      : YUV
Chroma subsampling               : 4:2:0
Bit depth                        : 8 bits
Scan type                        : Progressive
Compression mode                 : Lossy
Bits/(Pixel*Frame)               : 0.285
Stream size                      : 310 MiB (88%)
Writing library                  : XviD 1.1.0 Beta1 (UTC 2005-01-16)

Audio
ID                               : 1
Format                           : MPEG Audio
Format version                   : Version 1
Format profile                   : Layer 3
Codec ID                         : 55
Codec ID/Hint                    : MP3
Duration                         : 41mn 11s
Bit rate mode                    : Constant
Bit rate                         : 128 Kbps
Channel(s)                       : 2 channels
Sampling rate                    : 48.0 KHz
Compression mode                 : Lossy
Stream size                      : 37.7 MiB (11%)
Alignment                        : Aligned on interleaves
Interleave, duration             : 40 ms (1.00 video frame)
Interleave, preload duration     : 504 ms
Writing library                  : LAME3.95 
Encoding settings                : -m s -V 4 -q 2 -lowpass 17.5 -b 128

----------------------------------------------------------

General
Complete name                    : NewYork Section Criminelle[5x20] - Machines à tuer.avi
Format                           : AVI
Format/Info                      : Audio Video Interleave
File size                        : 350 MiB
Duration                         : 41mn 45s
Overall bit rate                 : 1 173 Kbps
Writing application              : VirtualDubMod 1.5.10.1 (build 2366/release)
Writing library                  : VirtualDubMod build 2366/release

Video
ID                               : 0
Format                           : MPEG-4 Visual
Format profile                   : Advanced Simple@L5
Format settings, BVOP            : 1
Format settings, QPel            : No
Format settings, GMC             : No warppoints
Format settings, Matrix          : Default (H.263)
Muxing mode                      : Packed bitstream
Codec ID                         : XVID
Codec ID/Hint                    : XviD
Duration                         : 41mn 45s
Bit rate                         : 1 035 Kbps
Width                            : 512 pixels
Height                           : 288 pixels
Display aspect ratio             : 16:9
Frame rate                       : 25.000 fps
Color space                      : YUV
Chroma subsampling               : 4:2:0
Bit depth                        : 8 bits
Scan type                        : Progressive
Compression mode                 : Lossy
Bits/(Pixel*Frame)               : 0.281
Stream size                      : 309 MiB (88%)
Writing library                  : XviD 1.1.0 Beta1 (UTC 2005-01-16)

Audio
ID                               : 1
Format                           : MPEG Audio
Format version                   : Version 1
Format profile                   : Layer 3
Codec ID                         : 55
Codec ID/Hint                    : MP3
Duration                         : 41mn 45s
Bit rate mode                    : Constant
Bit rate                         : 128 Kbps
Channel(s)                       : 2 channels
Sampling rate                    : 48.0 KHz
Compression mode                 : Lossy
Stream size                      : 38.2 MiB (11%)
Alignment                        : Aligned on interleaves
Interleave, duration             : 40 ms (1.00 video frame)
Interleave, preload duration     : 504 ms
Writing library                  : LAME3.95 
Encoding settings                : -m s -V 4 -q 2 -lowpass 17.5 -b 128

----------------------------------------------------------

General
Complete name                    : NewYork Section Criminelle[5x21] - Le feu aux poudres.avi
Format                           : AVI
Format/Info                      : Audio Video Interleave
File size                        : 350 MiB
Duration                         : 41mn 45s
Overall bit rate                 : 1 172 Kbps
Writing application              : VirtualDubMod 1.5.4.1 (build 2178/release)
Writing library                  : VirtualDubMod build 2178/release

Video
ID                               : 0
Format                           : MPEG-4 Visual
Format settings, BVOP            : No
Format settings, QPel            : No
Format settings, GMC             : No warppoints
Format settings, Matrix          : Default (H.263)
Codec ID                         : DX50
Codec ID/Hint                    : DivX 5
Duration                         : 41mn 45s
Bit rate                         : 1 036 Kbps
Width                            : 624 pixels
Height                           : 352 pixels
Display aspect ratio             : 16:9
Frame rate                       : 25.000 fps
Color space                      : YUV
Chroma subsampling               : 4:2:0
Bit depth                        : 8 bits
Scan type                        : Progressive
Compression mode                 : Lossy
Bits/(Pixel*Frame)               : 0.189
Stream size                      : 310 MiB (88%)
Writing library                  : DivX 5.2.1 (WaffleDay) (UTC 2004-09-08)

Audio
ID                               : 1
Format                           : MPEG Audio
Format version                   : Version 1
Format profile                   : Layer 3
Codec ID                         : 55
Codec ID/Hint                    : MP3
Duration                         : 41mn 45s
Bit rate mode                    : Constant
Bit rate                         : 128 Kbps
Channel(s)                       : 2 channels
Sampling rate                    : 48.0 KHz
Compression mode                 : Lossy
Stream size                      : 38.2 MiB (11%)
Alignment                        : Aligned on interleaves
Interleave, duration             : 80 ms (2.00 video frames)
Interleave, preload duration     : 504 ms
Writing library                  : LAME3.95 
Encoding settings                : -m s -V 4 -q 2 -lowpass 17.5 -b 128

----------------------------------------------------------

General
Complete name                    : NewYork Section Criminelle[5x22] - La honte de la famille.avi
Format                           : AVI
Format/Info                      : Audio Video Interleave
File size                        : 350 MiB
Duration                         : 41mn 42s
Overall bit rate                 : 1 175 Kbps
Writing application              : VirtualDubMod 1.5.10.1 (build 2366/release)
Writing library                  : VirtualDubMod build 2366/release

Video
ID                               : 0
Format                           : MPEG-4 Visual
Format profile                   : Advanced Simple@L5
Format settings, BVOP            : 1
Format settings, QPel            : No
Format settings, GMC             : No warppoints
Format settings, Matrix          : Default (H.263)
Muxing mode                      : Packed bitstream
Codec ID                         : XVID
Codec ID/Hint                    : XviD
Duration                         : 41mn 42s
Bit rate                         : 1 037 Kbps
Width                            : 512 pixels
Height                           : 288 pixels
Display aspect ratio             : 16:9
Frame rate                       : 25.000 fps
Color space                      : YUV
Chroma subsampling               : 4:2:0
Bit depth                        : 8 bits
Scan type                        : Progressive
Compression mode                 : Lossy
Bits/(Pixel*Frame)               : 0.281
Stream size                      : 309 MiB (88%)
Writing library                  : XviD 1.1.0 Beta1 (UTC 2005-01-16)

Audio
ID                               : 1
Format                           : MPEG Audio
Format version                   : Version 1
Format profile                   : Layer 3
Codec ID                         : 55
Codec ID/Hint                    : MP3
Duration                         : 41mn 42s
Bit rate mode                    : Constant
Bit rate                         : 128 Kbps
Channel(s)                       : 2 channels
Sampling rate                    : 48.0 KHz
Compression mode                 : Lossy
Stream size                      : 38.2 MiB (11%)
Alignment                        : Aligned on interleaves
Interleave, duration             : 40 ms (1.00 video frame)
Interleave, preload duration     : 504 ms
Writing library                  : LAME3.95 
Encoding settings                : -m s -V 4 -q 2 -lowpass 17.5 -b 128

TÉLÉCHARGER "New York Section Criminelle Saison 5 Vf TvRip" 20x PLUS VITE AVEC USENET
Anonyme&Rapide – 14 jours gratuits

Ajouter un commentaire

1 - 20 | 21 - 22
Eufrasine ↑ 738.2 GB ↓ 415.74 GB Ratio: 1,77

Merci beaucoup, une série que je regarderai toujours avec un grand plaisir !

MaximeLina Adulte depuis l'enfance.

Merci pour cette saison, il y manque le premier épisode mais ça-va j'ai su le télécharger ailleur pour completer.

On à tous un rêve, le nôtre est Américain.

chkeau ↑ 2.08 TB ↓ 797.73 GB Ratio: 2,67

dommage,j'ai vu qu'il manquait le 1er épisode ???????

chkeau ↑ 2.08 TB ↓ 797.73 GB Ratio: 2,67

encore mille Merci pour tout les torrents, et bonne continuation a tout les Torrentiens411 a++++++++++

Lessaim

demande à pegycb67, l'uploader de la saison 3, de rajouter l'épisode manquant. s'il ne le fait pas, ne le peut pas, j'essaierai de voir ce que je peux faire

Ce qui est évident à vos yeux, ne l'est pas forcément aux yeux de tous


http://www.youtube.com/user/MrLessaim?feature=guide

guffy ↑ 1.65 TB ↓ 2.11 TB Ratio: 0,78

Bonjour, il me manque l'épisode 7 de la saison 3
Cordialement
Guffy

Lessaim

non non, c'est bien la section criminelle, mais à une saison ultérieure, je n'ai pas changé ce que streetprez proposait comme affiche en fait

Ce qui est évident à vos yeux, ne l'est pas forcément aux yeux de tous


http://www.youtube.com/user/MrLessaim?feature=guide

coulou1977 ↑ 633.71 GB ↓ 813.74 GB Ratio: 0,77

merci petit bémol l(affiche ne correspond pas à la série ... enfin celle présentée est la section judiciaire et pas criminelle

torrent411best ↑ 171.12 GB ↓ 230.23 GB Ratio: 0,74

merci pour ce partage.

samy0908 ↑ 3.45 TB ↓ 1.3 TB Ratio: 2,65

FR17290 ↑ 1.39 TB ↓ 648.67 GB Ratio: 2,19

Merci d'avoir fait sauter les pubs de TF1

jccoolca ↑ 1.77 TB ↓ 1.17 TB Ratio: 1,51

Merci, excellente série

corto47 ↑ 1.87 TB ↓ 514.26 GB Ratio: 3,71

encore merci !!!!!!

soulhunter16 ↑ 15.36 TB ↓ 2.2 TB Ratio: 6,99

Merci

Lessaim

je mets la suite d'ici 2/3 jours, le temps d'avoir un peu de place

Ce qui est évident à vos yeux, ne l'est pas forcément aux yeux de tous


http://www.youtube.com/user/MrLessaim?feature=guide

nisa83 ↑ 1.51 TB ↓ 1.52 TB Ratio: 0,99

salut Lessaim, je fais tout mon possible pour rester en seed
pour tout le monde aussi car je vois que cette série a du succès. Merci, à bientôt.

Lessaim

salut nina83, si tu restes en partage sur les saisons, je pense que ton ratio devrait remonter progressivement facilement

Ce qui est évident à vos yeux, ne l'est pas forcément aux yeux de tous


http://www.youtube.com/user/MrLessaim?feature=guide

nisa83 ↑ 1.51 TB ↓ 1.52 TB Ratio: 0,99

Coucou ! encore merci Lessaim !
je n'oublie pas les votes et les remerciements.
mais ayant un faible ratio, j'attends encore un peu pour l'avoir cette saison.
A bientôt et encore merci

Lessaim

euh ... je suis en seed, sauf quand je dois redémarrer, et ça m'arrive d'en avoir besoin pour travailler. ou alors tu demandes plus de seed, j'en suis à 20 ko de moyenne et c'est fait exprès, pour éviter de flinguer les ratios. Néanmoins, si les gens veulent que j'augmente, on peut lancer le vote

Ce qui est évident à vos yeux, ne l'est pas forcément aux yeux de tous


http://www.youtube.com/user/MrLessaim?feature=guide

slapshot868

merci pour cette saison mais sa serais bien de rester en seed

1 - 20 | 21 - 22
Télécharger "New York Section Criminelle Saison 5 Vf TvRip" en illimité a une vitesse de 1000 kbps grïâce aux 14 Jours d'essai gratuit offerts par Usenet.nl!
 
Loading...