Patrick Bruel Tour 95 - On s'était dit URL Raccourcie

Télécharger "Patrick Bruel Tour 95 - On s'était dit" en illimité a une vitesse de 1000 kbps grïâce aux 14 Jours d'essai gratuit offerts par Usenet.nl!


Patrick Bruel
Live 95
"On s'était dit"
CD (4 décembre 1995)
Nombre de disques: 1
Format : Live
Label: Rca France
1-On t'attendait
2-Place des grands hommes
3-J' suis quand même là
4-Dors
5-Alors regarde
6-Qui a le droit?
7-Casser la voix
8-Quoique
9-Fernand
10-Combien de murs
11-Est-ce que tu danseras avec moi?
12-Décalé
13-Pars pas
14-J' te le dis quand même
15-S' laisser aimer
16-Pour exister

Musiciens
Patrick Bruel : Chant, guitare, piano
Aldo Nova : Guitare
John Woolloff : Guitare
Franck Sitbon : Clavier
Adam Dorf : Basse
Dominique Bertram : basse
Fabrice Moreau : Batterie
François Constantin : Percussion
Franck Sitbon, Aldo Nova : Choeurs



↓↓↓ Patrick Bruel Tour 95 - On s'était dit ↓↓↓
 

www.usenet.nl

Seeders 14 Leechers 0 Téléchargements 1985
 
Télécharger Dire merci! Signaler
Voir la liste des membres qui vous remercient
↑↑↑ Patrick Bruel Tour 95 - On s'était dit ↑↑↑

Informations

Nom Patrick Bruel Tour 95 - On s'était dit
Torrent Patrick Bruel.torrent
Catégorie Musique
Taille totale 784.88 MB
Info Hash 75c322f8bc775486dfb1591b61327ef8d79af9e1
Uploadé par joey06
Uploadé le 2011-03-17 12:48:13 (+00:00)
Visites 2358
évaluation 4.9/5 (17 votes)

Liste des Fichiers

Path Size
Covers/cd.jpg 15.04 MB
Covers/front+back.jpg 53.15 MB
Covers/inside 1.jpg 78.26 MB
Covers/inside 2.jpg 54.2 MB
Covers/inside 3.jpg 90.11 MB
info.nfo 13.04 KB
single cd/01 On t'attendait.flac 22.92 MB
single cd/02 Place des grands hommes.flac 34.77 MB
26.95 MB
single cd/04 Dors.flac 29.7 MB
single cd/05 Alors regarde.flac 40.39 MB
single cd/06 Qui a le droit.flac 31.01 MB
single cd/07 Casser la voix.flac 30.02 MB
single cd/08 Quoique.flac 28.43 MB
single cd/09 Fernand.flac 24.69 MB
single cd/10 Combien de murs.flac 42.66 MB
single cd/11 Est-ce que ....flac 28.04 MB
35.85 MB
single cd/13 Pars pas.flac 37.28 MB
single cd/14 J' te le dis....flac 20.28 MB
single cd/15 S 'laisser aimer.flac 26.85 MB
single cd/16 Pour exister.flac 34.28 MB

Voir le NFO

{\rtf1\ansi\ansicpg1252\cocoartf1038\cocoasubrtf350
{\fonttbl\f0\fnil\fcharset0 Geneva;}
{\colortbl;\red255\green255\blue255;}
\paperw11900\paperh16840\margl1440\margr1440\vieww37900\viewh19160\viewkind0
\pard\tx560\tx1120\tx1680\tx2240\tx2800\tx3360\tx3920\tx4480\tx5040\tx5600\tx6160\tx6720\ql\qnatural\pardirnatural

\f0\fs20 \cf0 General\
Complete name                    :Patrick Bruel/01 On t'attendait.flac\
Format                           : FLAC\
Format/Info                      : Free Lossless Audio Codec\
File size                        : 22.9 MiB\
Duration                         : 4mn 4s\
Overall bit rate                 : 785 Kbps\
Album                            : Patrick Bruel On s'\'e9tait dit\
Track name                       : Piste  1\
\
Audio\
Format                           : FLAC\
Format/Info                      : Free Lossless Audio Codec\
Duration                         : 4mn 4s\
Bit rate mode                    : Variable\
Bit rate                         : 784 Kbps\
Channel(s)                       : 2 channels\
Sampling rate                    : 44.1 KHz\
Bit depth                        : 16 bits\
Stream size                      : 22.9 MiB (100%)\
Writing library                  : libFLAC 1.2.1 (UTC 2007-09-17)\
\
General\
Complete name              Patrick Bruel/02 Place des grands hommes.flac\
Format                           : FLAC\
Format/Info                      : Free Lossless Audio Codec\
File size                        : 34.8 MiB\
Duration                         : 4mn 55s\
Overall bit rate                 : 989 Kbps\
Album                            : Patrick Bruel On s'\'e9tait dit\
Track name                       : Piste  2\
\
Audio\
Format                           : FLAC\
Format/Info                      : Free Lossless Audio Codec\
Duration                         : 4mn 55s\
Bit rate mode                    : Variable\
Bit rate                         : 987 Kbps\
Channel(s)                       : 2 channels\
Sampling rate                    : 44.1 KHz\
Bit depth                        : 16 bits\
Stream size                      : 34.7 MiB (100%)\
Writing library                  : libFLAC 1.2.1 (UTC 2007-09-17)\
\
General\
Complete name                   Patrick Bruel/04 Dors.flac\
Format                           : FLAC\
Format/Info                      : Free Lossless Audio Codec\
File size                        : 29.7 MiB\
Duration                         : 4mn 46s\
Overall bit rate                 : 871 Kbps\
Album                            : Patrick Bruel On s'\'e9tait dit\
Track name                       : Piste  4\
\
Audio\
Format                           : FLAC\
Format/Info                      : Free Lossless Audio Codec\
Duration                         : 4mn 46s\
Bit rate mode                    : Variable\
Bit rate                         : 869 Kbps\
Channel(s)                       : 2 channels\
Sampling rate                    : 44.1 KHz\
Bit depth                        : 16 bits\
Stream size                      : 29.6 MiB (100%)\
Writing library                  : libFLAC 1.2.1 (UTC 2007-09-17)\
\
General\
Complete name                  Patrick Bruel/05 Alors regarde.flac\
Format                           : FLAC\
Format/Info                      : Free Lossless Audio Codec\
File size                        : 40.4 MiB\
Duration                         : 5mn 48s\
Overall bit rate                 : 972 Kbps\
Album                            : Patrick Bruel On s'\'e9tait dit\
Track name                       : Piste  5\
\
Audio\
Format                           : FLAC\
Format/Info                      : Free Lossless Audio Codec\
Duration                         : 5mn 48s\
Bit rate mode                    : Variable\
Bit rate                         : 971 Kbps\
Channel(s)                       : 2 channels\
Sampling rate                    : 44.1 KHz\
Bit depth                        : 16 bits\
Stream size                      : 40.3 MiB (100%)\
Writing library                  : libFLAC 1.2.1 (UTC 2007-09-17)\
\
General\
Complete name                    Patrick Bruel/06 Qui a le droit.flac\
Format                           : FLAC\
Format/Info                      : Free Lossless Audio Codec\
File size                        : 31.0 MiB\
Duration                         : 5mn 5s\
Overall bit rate                 : 853 Kbps\
Album                            : Patrick Bruel On s'\'e9tait dit\
Track name                       : Piste  6\
\
Audio\
Format                           : FLAC\
Format/Info                      : Free Lossless Audio Codec\
Duration                         : 5mn 5s\
Bit rate mode                    : Variable\
Bit rate                         : 851 Kbps\
Channel(s)                       : 2 channels\
Sampling rate                    : 44.1 KHz\
Bit depth                        : 16 bits\
Stream size                      : 31.0 MiB (100%)\
Writing library                  : libFLAC 1.2.1 (UTC 2007-09-17)\
\
General\
Complete name                   Patrick Bruel/07 Casser la voix.flac\
Format                           : FLAC\
Format/Info                      : Free Lossless Audio Codec\
File size                        : 30.0 MiB\
Duration                         : 4mn 33s\
Overall bit rate                 : 919 Kbps\
Album                            : Patrick Bruel On s'\'e9tait dit\
Track name                       : Piste  7\
\
Audio\
Format                           : FLAC\
Format/Info                      : Free Lossless Audio Codec\
Duration                         : 4mn 33s\
Bit rate mode                    : Variable\
Bit rate                         : 918 Kbps\
Channel(s)                       : 2 channels\
Sampling rate                    : 44.1 KHz\
Bit depth                        : 16 bits\
Stream size                      : 30.0 MiB (100%)\
Writing library                  : libFLAC 1.2.1 (UTC 2007-09-17)\
\
General\
Complete name                  Patrick Bruel/08 Quoique.flac\
Format                           : FLAC\
Format/Info                      : Free Lossless Audio Codec\
File size                        : 28.4 MiB\
Duration                         : 3mn 46s\
Overall bit rate                 : 1 052 Kbps\
Album                            : Patrick Bruel On s'\'e9tait dit\
Track name                       : Piste  8\
\
Audio\
Format                           : FLAC\
Format/Info                      : Free Lossless Audio Codec\
Duration                         : 3mn 46s\
Bit rate mode                    : Variable\
Bit rate                         : 1 050 Kbps\
Channel(s)                       : 2 channels\
Sampling rate                    : 44.1 KHz\
Bit depth                        : 16 bits\
Stream size                      : 28.4 MiB (100%)\
Writing library                  : libFLAC 1.2.1 (UTC 2007-09-17)\
\
General\
Complete name                  Patrick Bruel/09 Fernand.flac\
Format                           : FLAC\
Format/Info                      : Free Lossless Audio Codec\
File size                        : 24.7 MiB\
Duration                         : 4mn 45s\
Overall bit rate                 : 725 Kbps\
Album                            : Patrick Bruel On s'\'e9tait dit\
Track name                       : Piste  9\
\
Audio\
Format                           : FLAC\
Format/Info                      : Free Lossless Audio Codec\
Duration                         : 4mn 45s\
Bit rate mode                    : Variable\
Bit rate                         : 723 Kbps\
Channel(s)                       : 2 channels\
Sampling rate                    : 44.1 KHz\
Bit depth                        : 16 bits\
Stream size                      : 24.6 MiB (100%)\
Writing library                  : libFLAC 1.2.1 (UTC 2007-09-17)\
\
General\
Complete name                    Patrick Bruel/10 Combien de murs.flac\
Format                           : FLAC\
Format/Info                      : Free Lossless Audio Codec\
File size                        : 42.7 MiB\
Duration                         : 5mn 45s\
Overall bit rate                 : 1 037 Kbps\
Album                            : Patrick Bruel On s'\'e9tait dit\
Track name                       : Piste 10\
\
Audio\
Format                           : FLAC\
Format/Info                      : Free Lossless Audio Codec\
Duration                         : 5mn 45s\
Bit rate mode                    : Variable\
Bit rate                         : 1 035 Kbps\
Channel(s)                       : 2 channels\
Sampling rate                    : 44.1 KHz\
Bit depth                        : 16 bits\
Stream size                      : 42.6 MiB (100%)\
Writing library                  : libFLAC 1.2.1 (UTC 2007-09-17)\
\
General\
Complete name                    Patrick Bruel/11 Est-ce que ....flac\
Format                           : FLAC\
Format/Info                      : Free Lossless Audio Codec\
File size                        : 28.0 MiB\
Duration                         : 4mn 29s\
Overall bit rate                 : 872 Kbps\
Album                            : Patrick Bruel On s'\'e9tait dit\
Track name                       : Piste 11\
\
Audio\
Format                           : FLAC\
Format/Info                      : Free Lossless Audio Codec\
Duration                         : 4mn 29s\
Bit rate mode                    : Variable\
Bit rate                         : 870 Kbps\
Channel(s)                       : 2 channels\
Sampling rate                    : 44.1 KHz\
Bit depth                        : 16 bits\
Stream size                      : 28.0 MiB (100%)\
Writing library                  : libFLAC 1.2.1 (UTC 2007-09-17)\
\
General\
Complete name                Patrick Bruel/13 Pars pas.flac\
Format                           : FLAC\
Format/Info                      : Free Lossless Audio Codec\
File size                        : 37.3 MiB\
Duration                         : 5mn 45s\
Overall bit rate                 : 905 Kbps\
Album                            : Patrick Bruel On s'\'e9tait dit\
Track name                       : Piste 13\
\
Audio\
Format                           : FLAC\
Format/Info                      : Free Lossless Audio Codec\
Duration                         : 5mn 45s\
Bit rate mode                    : Variable\
Bit rate                         : 903 Kbps\
Channel(s)                       : 2 channels\
Sampling rate                    : 44.1 KHz\
Bit depth                        : 16 bits\
Stream size                      : 37.2 MiB (100%)\
Writing library                  : libFLAC 1.2.1 (UTC 2007-09-17)\
\
General\
Complete name                   Patrick Bruel/14 J' te le dis....flac\
Format                           : FLAC\
Format/Info                      : Free Lossless Audio Codec\
File size                        : 20.3 MiB\
Duration                         : 3mn 47s\
Overall bit rate                 : 747 Kbps\
Album                            : Patrick Bruel On s'\'e9tait dit\
Track name                       : Piste 14\
\
Audio\
Format                           : FLAC\
Format/Info                      : Free Lossless Audio Codec\
Duration                         : 3mn 47s\
Bit rate mode                    : Variable\
Bit rate                         : 745 Kbps\
Channel(s)                       : 2 channels\
Sampling rate                    : 44.1 KHz\
Bit depth                        : 16 bits\
Stream size                      : 20.2 MiB (100%)\
Writing library                  : libFLAC 1.2.1 (UTC 2007-09-17)\
\
General\
Complete name                  Patrick Bruel/15 S 'laisser aimer.flac\
Format                           : FLAC\
Format/Info                      : Free Lossless Audio Codec\
File size                        : 26.9 MiB\
Duration                         : 4mn 50s\
Overall bit rate                 : 774 Kbps\
Album                            : Patrick Bruel On s'\'e9tait dit\
Track name                       : Piste 15\
\
Audio\
Format                           : FLAC\
Format/Info                      : Free Lossless Audio Codec\
Duration                         : 4mn 50s\
Bit rate mode                    : Variable\
Bit rate                         : 773 Kbps\
Channel(s)                       : 2 channels\
Sampling rate                    : 44.1 KHz\
Bit depth                        : 16 bits\
Stream size                      : 26.8 MiB (100%)\
Writing library                  : libFLAC 1.2.1 (UTC 2007-09-17)\
\
General\
Complete name                   Patrick Bruel/16 Pour exister.flac\
Format                           : FLAC\
Format/Info                      : Free Lossless Audio Codec\
File size                        : 34.3 MiB\
Duration                         : 5mn 19s\
Overall bit rate                 : 901 Kbps\
Album                            : Patrick Bruel On s'\'e9tait dit\
Track name                       : Piste 16\
\
Audio\
Format                           : FLAC\
Format/Info                      : Free Lossless Audio Codec\
Duration                         : 5mn 19s\
Bit rate mode                    : Variable\
Bit rate                         : 899 Kbps\
Channel(s)                       : 2 channels\
Sampling rate                    : 44.1 KHz\
Bit depth                        : 16 bits\
Stream size                      : 34.2 MiB (100%)\
Writing library                  : libFLAC 1.2.1 (UTC 2007-09-17)}

TÉLÉCHARGER "Patrick Bruel Tour 95 - On s'était dit" 20x PLUS VITE AVEC USENET
Anonyme&Rapide – 14 jours gratuits

Ajouter un commentaire

Louis1942 ↑ 70.8 GB ↓ 64.38 GB Ratio: 1,09

Un concert merveilleuse et inoubliable! Merci!
Louis1942

yayane1959 ↑ 194.23 GB ↓ 156.12 GB Ratio: 1,24

je vous remercie beaucoup

lazute24 ↑ 214.94 GB ↓ 197.13 GB Ratio: 1,09

un grand MERCI!!!!

dricks1172 ↑ 19.13 TB ↓ 16.22 TB Ratio: 1,17

bandit118 ↑ 151.63 GB ↓ 94.15 GB Ratio: 1,61

ptitlou007

merci

Télécharger "Patrick Bruel Tour 95 - On s'était dit" en illimité a une vitesse de 1000 kbps grïâce aux 14 Jours d'essai gratuit offerts par Usenet.nl!
 
Loading...