Shameless Saison 1 FR URL Raccourcie

Télécharger "Shameless Saison 1 FR" en illimité a une vitesse de 1000 kbps grïâce aux 14 Jours d'essai gratuit offerts par Usenet.nl!
(¯`·._.·[ Shameless ]·._.·´¯








Origine de la serie : britannique
Titre original : Shameless
Saison : 1
Episodes : 1 à 7
Top Série : 3,8 sur 5
Statut : : Série en production - 5 saisons, 36 épisodes
Réalisateur : en 2004
Acteurs : David Threlfall, Jody Latham, Gerard Kearns
Genre : Drame
Date de difusion : en France le 27 octobre 2007



Pour les enfants Gallagher, la vie est tout sauf un long fleuve tranquille... Fiona, l'aînée, âgée de 20 ans, élève du mieux possible sa soeur et ses quatres frères. Leur mère, Monica, les a abandonnés pour refaire sa vie avec une femme. Quant à leur père, Frank, paumé, chômeur et alcoolique, il dilapide l'argent des allocations familiales...




Qualité : DVDRiP
Format : XviD
Langue : Français
Sous-titre : Aucun
Découper avec :


Mot de pass : Aucun

Total du post: 2,34 Go



↓↓↓ Shameless Saison 1 FR ↓↓↓
 

www.usenet.nl

Seeders 109 Leechers 4 Téléchargements 11920
 
Télécharger Dire merci! Signaler
Voir la liste des membres qui vous remercient
↑↑↑ Shameless Saison 1 FR ↑↑↑

Informations

Nom Shameless Saison 1 FR
Torrent Shameless - Saison 1.torrent
Catégorie Série TV
Taille totale 2.34 GB
Info Hash 72b52d9cfed48f467a8101380b7d64d2af57eb8e
Uploadé par mimie77
Uploadé le 2011-04-15 19:55:42 (+00:00)
Visites 14892
évaluation 4.9/5 (89 votes)

Liste des Fichiers

Path Size
Shameless.1x01.Une.drôle.de.famille.DVDRip.Fr.avi 353.27 MB
Shameless.1x06.Monica.DVDRip.Fr.avi 348.34 MB
Shameless.1x03.Vive.les.mariés.!.DVDRip.Fr.avi 346.71 MB
Shameless.1x02.La.disparition.DVDRip.Fr.avi 346.3 MB
Shameless.1x07.Ci-gît.Franck.DVDRip.Fr.avi 338.73 MB
Shameless.1x04.A.la.recherche.de.Jody.DVDRip.Fr.avi 337.99 MB
Shameless.1x05.La.réunion.des.parents.d'élèves.DVDRip.Fr.avi 327.97 MB

Voir le NFO

General
Complete name      : /Users/Samaf/Desktop/Shameless/Saison 1/Shameless.1x01.Une.drôle.de.famille.DVDRip.Fr.avi
Format :
AVI
Format/Info :
Audio Video Interleave
File size :
353 MiB
Duration :
48mn 48s
Overall bit rate :
1 012 Kbps
Writing application :
VirtualDubMod 1.4.13
Writing library :
VirtualDub build 14328/release
Video
ID :
0
Format :
MPEG-4 Visual
Format profile :
AdvancedSimple@L5
Format settings, BVOP :
Yes
Format settings, QPel :
No
Format settings, GMC :
No warppoints
Format settings, Matrix :
Default (H.263)
Muxing mode :
Packed bitstream
Codec ID :
XVID
Codec ID/Hint :
XviD
Duration :
48mn 48s
Bit rate :
868 Kbps
Width :
640 pixels
Height :
352 pixels
Display aspect ratio :
16:9
Frame rate :
25.000 fps
Resolution :
24 bits
Colorimetry :
4:2:0
Scan type :
Progressive
Bits/(Pixel*Frame) :
0.154
Stream size :
303 MiB (86%)
Writing library :
XviD 1.0.3 (UTC 2004-12-20)
Audio
ID :
1
Format :
MPEG Audio
Format version :
Version 1
Format profile :
Layer 3
Codec ID :
55
Codec ID/Hint :
MP3
Duration :
48mn 48s
Bit rate mode :
Variable
Bit rate :
131 Kbps
Nominal bit rate :
128 Kbps
Channel(s) :
2 channels
Sampling rate :
48.0 KHz
Resolution :
16 bits
Stream size :
45.7 MiB (13%)
Alignment :
Aligned on interleaves
Interleave, duration :
24 ms (0.60 video frame)
Writing library :
LAME3.90.
Encoding settings :
-m j -V 4 -q 2 -lowpass 17.6 --abr 128
General
Complete name :
/Users/Samaf/Desktop/Shameless/Saison 1/Shameless.1x02.La.disparition.DVDRip.Fr.avi
Format :
AVI
Format/Info :
Audio Video Interleave
File size :
346 MiB
Duration :
48mn 37s
Overall bit rate :
996 Kbps
Writing application :
VirtualDubMod 1.4.13
Writing library :
VirtualDub build 14328/release
Video
ID :
0
Format :
MPEG-4 Visual
Format profile :
AdvancedSimple@L5
Format settings, BVOP :
Yes
Format settings, QPel :
No
Format settings, GMC :
No warppoints
Format settings, Matrix :
Default (H.263)
Muxing mode :
Packed bitstream
Codec ID :
XVID
Codec ID/Hint :
XviD
Duration :
48mn 37s
Bit rate :
852 Kbps
Width :
640 pixels
Height :
352 pixels
Display aspect ratio :
16:9
Frame rate :
25.000 fps
Resolution :
24 bits
Colorimetry :
4:2:0
Scan type :
Progressive
Bits/(Pixel*Frame) :
0.151
Stream size :
296 MiB (86%)
Writing library :
XviD 1.0.3 (UTC 2004-12-20)
Audio
ID :
1
Format :
MPEG Audio
Format version :
Version 1
Format profile :
Layer 3
Codec ID :
55
Codec ID/Hint :
MP3
Duration :
48mn 37s
Bit rate mode :
Variable
Bit rate :
131 Kbps
Nominal bit rate :
128 Kbps
Channel(s) :
2 channels
Sampling rate :
48.0 KHz
Resolution :
16 bits
Stream size :
45.5 MiB (13%)
Alignment :
Aligned on interleaves
Interleave, duration :
24 ms (0.60 video frame)
Writing library :
LAME3.90.
Encoding settings :
-m j -V 4 -q 2 -lowpass 17.6 --abr 128
General
Complete name :
/Users/Samaf/Desktop/Shameless/Saison 1/Shameless.1x03.Vive.les.mariés.!.DVDRip.Fr.avi
Format :
AVI
Format/Info :
Audio Video Interleave
File size :
347 MiB
Duration :
48mn 26s
Overall bit rate :
1 001 Kbps
Writing application :
VirtualDubMod 1.4.13
Writing library :
VirtualDub build 14328/release
Video
ID :
0
Format :
MPEG-4 Visual
Format profile :
AdvancedSimple@L5
Format settings, BVOP :
Yes
Format settings, QPel :
No
Format settings, GMC :
No warppoints
Format settings, Matrix :
Default (H.263)
Muxing mode :
Packed bitstream
Codec ID :
XVID
Codec ID/Hint :
XviD
Duration :
48mn 26s
Bit rate :
857 Kbps
Width :
640 pixels
Height :
352 pixels
Display aspect ratio :
16:9
Frame rate :
25.000 fps
Resolution :
24 bits
Colorimetry :
4:2:0
Scan type :
Progressive
Bits/(Pixel*Frame) :
0.152
Stream size :
297 MiB (86%)
Writing library :
XviD 1.0.3 (UTC 2004-12-20)
Audio
ID :
1
Format :
MPEG Audio
Format version :
Version 1
Format profile :
Layer 3
Codec ID :
55
Codec ID/Hint :
MP3
Duration :
48mn 26s
Bit rate mode :
Variable
Bit rate :
130 Kbps
Nominal bit rate :
128 Kbps
Channel(s) :
2 channels
Sampling rate :
48.0 KHz
Resolution :
16 bits
Stream size :
45.2 MiB (13%)
Alignment :
Aligned on interleaves
Interleave, duration :
24 ms (0.60 video frame)
Writing library :
LAME3.90.
Encoding settings :
-m j -V 4 -q 2 -lowpass 17.6 --abr 128
General
Complete name :
/Users/Samaf/Desktop/Shameless/Saison 1/Shameless.1x04.A.la.recherche.de.Jody.DVDRip.Fr.avi
Format :
AVI
Format/Info :
Audio Video Interleave
File size :
338 MiB
Duration :
47mn 11s
Overall bit rate :
1 001 Kbps
Writing application :
VirtualDubMod 1.4.13
Writing library :
VirtualDub build 14328/release
Video
ID :
0
Format :
MPEG-4 Visual
Format profile :
AdvancedSimple@L5
Format settings, BVOP :
Yes
Format settings, QPel :
No
Format settings, GMC :
No warppoints
Format settings, Matrix :
Default (H.263)
Muxing mode :
Packed bitstream
Codec ID :
XVID
Codec ID/Hint :
XviD
Duration :
47mn 11s
Bit rate :
858 Kbps
Width :
640 pixels
Height :
352 pixels
Display aspect ratio :
16:9
Frame rate :
25.000 fps
Resolution :
24 bits
Colorimetry :
4:2:0
Scan type :
Progressive
Bits/(Pixel*Frame) :
0.152
Stream size :
289 MiB (86%)
Writing library :
XviD 1.0.3 (UTC 2004-12-20)
Audio
ID :
1
Format :
MPEG Audio
Format version :
Version 1
Format profile :
Layer 3
Codec ID :
55
Codec ID/Hint :
MP3
Duration :
47mn 11s
Bit rate mode :
Variable
Bit rate :
131 Kbps
Nominal bit rate :
128 Kbps
Channel(s) :
2 channels
Sampling rate :
48.0 KHz
Resolution :
16 bits
Stream size :
44.2 MiB (13%)
Alignment :
Aligned on interleaves
Interleave, duration :
24 ms (0.60 video frame)
Writing library :
LAME3.90.
Encoding settings :
-m j -V 4 -q 2 -lowpass 17.6 --abr 128
General
Complete name :
/Users/Samaf/Desktop/Shameless/Saison 1/Shameless.1x05.La.réunion.des.parents.d'élèves.DVDRip.Fr.avi
Format :
AVI
Format/Info :
Audio Video Interleave
File size :
328 MiB
Duration :
45mn 34s
Overall bit rate :
1 006 Kbps
Writing application :
VirtualDubMod 1.4.13
Writing library :
VirtualDub build 14328/release
Video
ID :
0
Format :
MPEG-4 Visual
Format profile :
AdvancedSimple@L5
Format settings, BVOP :
Yes
Format settings, QPel :
No
Format settings, GMC :
No warppoints
Format settings, Matrix :
Default (H.263)
Muxing mode :
Packed bitstream
Codec ID :
XVID
Codec ID/Hint :
XviD
Duration :
45mn 34s
Bit rate :
863 Kbps
Width :
640 pixels
Height :
352 pixels
Display aspect ratio :
16:9
Frame rate :
25.000 fps
Resolution :
24 bits
Colorimetry :
4:2:0
Scan type :
Progressive
Bits/(Pixel*Frame) :
0.153
Stream size :
281 MiB (86%)
Writing library :
XviD 1.0.3 (UTC 2004-12-20)
Audio
ID :
1
Format :
MPEG Audio
Format version :
Version 1
Format profile :
Layer 3
Codec ID :
55
Codec ID/Hint :
MP3
Duration :
45mn 34s
Bit rate mode :
Variable
Bit rate :
131 Kbps
Nominal bit rate :
128 Kbps
Channel(s) :
2 channels
Sampling rate :
48.0 KHz
Resolution :
16 bits
Stream size :
42.5 MiB (13%)
Alignment :
Aligned on interleaves
Interleave, duration :
24 ms (0.60 video frame)
Writing library :
LAME3.90.
Encoding settings :
-m j -V 4 -q 2 -lowpass 17.6 --abr 128
General
Complete name :
/Users/Samaf/Desktop/Shameless/Saison 1/Shameless.1x06.Monica.DVDRip.Fr.avi
Format :
AVI
Format/Info :
Audio Video Interleave
File size :
348 MiB
Duration :
48mn 24s
Overall bit rate :
1 006 Kbps
Writing application :
VirtualDubMod 1.4.13
Writing library :
VirtualDub build 14328/release
Video
ID :
0
Format :
MPEG-4 Visual
Format profile :
AdvancedSimple@L5
Format settings, BVOP :
Yes
Format settings, QPel :
No
Format settings, GMC :
No warppoints
Format settings, Matrix :
Default (H.263)
Muxing mode :
Packed bitstream
Codec ID :
XVID
Codec ID/Hint :
XviD
Duration :
48mn 24s
Bit rate :
862 Kbps
Width :
640 pixels
Height :
352 pixels
Display aspect ratio :
16:9
Frame rate :
25.000 fps
Resolution :
24 bits
Colorimetry :
4:2:0
Scan type :
Progressive
Bits/(Pixel*Frame) :
0.153
Stream size :
298 MiB (86%)
Writing library :
XviD 1.0.3 (UTC 2004-12-20)
Audio
ID :
1
Format :
MPEG Audio
Format version :
Version 1
Format profile :
Layer 3
Codec ID :
55
Codec ID/Hint :
MP3
Duration :
48mn 24s
Bit rate mode :
Variable
Bit rate :
131 Kbps
Nominal bit rate :
128 Kbps
Channel(s) :
2 channels
Sampling rate :
48.0 KHz
Resolution :
16 bits
Stream size :
45.4 MiB (13%)
Alignment :
Aligned on interleaves
Interleave, duration :
24 ms (0.60 video frame)
Writing library :
LAME3.90.
Encoding settings :
-m j -V 4 -q 2 -lowpass 17.6 --abr 128
General
Complete name :
/Users/Samaf/Desktop/Shameless/Saison 1/Shameless.1x07.Ci-gît.Franck.DVDRip.Fr.avi
Format :
AVI
Format/Info :
Audio Video Interleave
File size :
339 MiB
Duration :
47mn 7s
Overall bit rate :
1 005 Kbps
Writing application :
VirtualDubMod 1.4.13
Writing library :
VirtualDub build 14328/release
Video
ID :
0
Format :
MPEG-4 Visual
Format profile :
AdvancedSimple@L5
Format settings, BVOP :
Yes
Format settings, QPel :
No
Format settings, GMC :
No warppoints
Format settings, Matrix :
Default (H.263)
Muxing mode :
Packed bitstream
Codec ID :
XVID
Codec ID/Hint :
XviD
Duration :
47mn 7s
Bit rate :
861 Kbps
Width :
640 pixels
Height :
352 pixels
Display aspect ratio :
16:9
Frame rate :
25.000 fps
Resolution :
24 bits
Colorimetry :
4:2:0
Scan type :
Progressive
Bits/(Pixel*Frame) :
0.153
Stream size :
290 MiB (86%)
Writing library :
XviD 1.0.3 (UTC 2004-12-20)
Audio
ID :
1
Format :
MPEG Audio
Format version :
Version 1
Format profile :
Layer 3
Codec ID :
55
Codec ID/Hint :
MP3
Duration :
47mn 7s
Bit rate mode :
Variable
Bit rate :
131 Kbps
Nominal bit rate :
128 Kbps
Channel(s) :
2 channels
Sampling rate :
48.0 KHz
Resolution :
16 bits
Stream size :
44.2 MiB (13%)
Alignment :
Aligned on interleaves
Interleave, duration :
24 ms (0.60 video frame)
Writing library :
LAME3.90.
Encoding settings :
-m j -V 4 -q 2 -lowpass 17.6 --abr 128

TÉLÉCHARGER "Shameless Saison 1 FR" 20x PLUS VITE AVEC USENET
Anonyme&Rapide – 14 jours gratuits

Ajouter un commentaire

1 - 20 | 21 - 40 | 41 - 41
loco07 ↑ 1.42 TB ↓ 1.41 TB Ratio: 1,00

Merci pour la UK

foof666 ↑ 45.9 GB ↓ 69.69 GB Ratio: 0,65

thanks pour le partage

satamannnnnnnn ↑ 32.72 GB ↓ 24.09 GB Ratio: 1,35

ou trouver l'épisode 8 joyeux noël svp

kravwin ↑ 47.1 GB ↓ 47.66 GB Ratio: 0,98

Je suis fan ^^

gail41 ↑ 54.66 GB ↓ 30.24 GB Ratio: 1,80

merci pour le partage

Tony7660 ↑ 30.06 GB ↓ 32.58 GB Ratio: 0,92

merci je kifff cette série trop déganté

slade24 ↑ 1.07 TB ↓ 1.43 TB Ratio: 0,74

Ouf, super série qui était diffusé à l'époque sur Europe 2 TV, j'kiff !

largo56winch ↑ 2.23 TB ↓ 807.62 GB Ratio: 2,83

merci pour la serie y en a t il d'autres pour la serie 1
A+
trop fort

rastaman0221 ↑ 1.83 TB ↓ 2.2 TB Ratio: 0,82

quelque sais ou on trouve lépisode 8 le final je le trouve nulle part..

MrPingoo ↑ 757.42 GB ↓ 279.48 GB Ratio: 2,71

Si tu pouvais uploader une version sous-titrée ce serai tellement bon, cette série en VF..

Flo5703

merci pour le partage mais série vraiment mauvaise comparer a sa cousine US

cesar1313 Study the past! ↑ 673.82 GB ↓ 654.56 GB Ratio: 1,02

merci mimie77 !!!!

"Je voudrais le silence, enfin! Et puis le vent..."

jabenmin ↑ 113.94 GB ↓ 95.68 GB Ratio: 1,19

trop cool!!!!! merci!!!!!!!!

greenblood42 ↑ 2.22 TB ↓ 2.81 TB Ratio: 0,78

super serie anglaise merci

Emaildecompte ↑ 1.84 TB ↓ 2.12 TB Ratio: 0,87

Attention, version UK (=/= US), et il manque le 8eme episode ! (le final de la saison)

hondo31 ↑ 773.13 GB ↓ 813.71 GB Ratio: 0,95

je n'ai aucune source ????? c'est normal ??????

ericsg ↑ 782.34 GB ↓ 276.75 GB Ratio: 2,82

Mercihttp://www.t411.me/images/smilies/yes.gif

bobbidule ↑ 1022.24 GB ↓ 840.48 GB Ratio: 1,21

Un grand MERCI !

gilles2525 ↑ 913.78 GB ↓ 936.57 GB Ratio: 0,97

merci bcp

clovis111 ↑ 467.47 GB ↓ 147.19 GB Ratio: 3,17

cool

1 - 20 | 21 - 40 | 41 - 41
Télécharger "Shameless Saison 1 FR" en illimité a une vitesse de 1000 kbps grïâce aux 14 Jours d'essai gratuit offerts par Usenet.nl!
 
Loading...