Tamara Drewe (2010) DVDRip VOSTFR URL Raccourcie

Télécharger "Tamara Drewe (2010) DVDRip VOSTFR" en illimité a une vitesse de 1000 kbps grïâce aux 14 Jours d'essai gratuit offerts par Usenet.nl!
(¯`·._.·[ ]·._.·´¯







Origine du film : britannique
Réalisateur : Stephen Frears
Acteurs : Aucune infos ...
Genre : Comédie
Durée : 01h49min
Année de production : : 2009
Distributeur : : Diaphana Distribution
Date de sortie : 14 juillet 2010
Titre Original : Tamara Drewe
Critiques spectateurs : 4
Bande annonce : Cliquez ici pour visualiser la bande annonce



Synopsis : Avec son nez refait, ses jambes interminables, son job dans la presse people, ses aspirations à la célébrité et sa facilité à briser les coeurs, Tamara Drewe est l\'Amazone londonienne du XXIe siècle.



Qualité : DVDRiP
Format : XviD
Langue : Anglais
Sous-titre : Français
Découper avec :


Mot de pass : Aucun

Total du post: 1460 Mo



↓↓↓ Tamara Drewe (2010) DVDRip VOSTFR ↓↓↓
 

www.usenet.nl

Seeders 5 Leechers 0 Téléchargements 3183
 
Télécharger Dire merci! Signaler
Voir la liste des membres qui vous remercient
↑↑↑ Tamara Drewe (2010) DVDRip VOSTFR ↑↑↑

Informations

Nom Tamara Drewe (2010) DVDRip VOSTFR
Torrent Tamara.Drewe.DVDRip.2010.VOSTFR-Noar.torrent
Catégorie Film
Taille totale 1.36 GB
Info Hash ffea00a5f2e7dff88a3caa89a8f8fabba5c60c6b
Uploadé par noardesir
Uploadé le 2011-01-31 11:30:55 (+00:00)
Visites 1990
évaluation 4/5 (3 votes)

Liste des Fichiers

Path Size
l-tamara.cd1.avi 698.05 MB
l-tamara.cd2.avi 698.23 MB
Tamara Drewe (2010).1.srt 54.16 KB
Tamara Drewe (2010).2.srt 46.07 KB
Tamara-Drewe-Noar.nfo 4.65 KB

Voir le NFO

General
Complete name                    : /Users/noar/Downloads/Tamara.Drewe.DVDRip.2010.VOSTFR-Noar/l-tamara.cd1.avi
Format                           : AVI
Format/Info                      : Audio Video Interleave
File size                        : 698 MiB
Duration                         : 55mn 4s
Overall bit rate                 : 1 772 Kbps
Writing application              : VirtualDubMod 1.5.10.2 (build 2540/release)
Writing library                  : VirtualDubMod build 2540/release
segm                             : 

Video
ID                               : 0
Format                           : MPEG-4 Visual
Format profile                   : Advanced Simple@L5
Format settings, BVOP            : Yes
Format settings, QPel            : No
Format settings, GMC             : No warppoints
Format settings, Matrix          : Default (H.263)
Codec ID                         : XVID
Codec ID/Hint                    : XviD
Duration                         : 55mn 4s
Bit rate                         : 1 315 Kbps
Width                            : 624 pixels
Height                           : 256 pixels
Display aspect ratio             : 2.40:1
Frame rate                       : 23.976 fps
Color space                      : YUV
Chroma subsampling               : 4:2:0
Bit depth                        : 8 bits
Scan type                        : Progressive
Compression mode                 : Lossy
Bits/(Pixel*Frame)               : 0.343
Stream size                      : 518 MiB (74%)
Writing library                  : XviD 1.2.1 (UTC 2008-12-04)

Audio
ID                               : 1
Format                           : AC-3
Format/Info                      : Audio Coding 3
Mode extension                   : CM (complete main)
Codec ID                         : 2000
Duration                         : 55mn 4s
Bit rate mode                    : Constant
Bit rate                         : 448 Kbps
Channel(s)                       : 6 channels
Channel positions                : Front: L C R, Side: L R, LFE
Sampling rate                    : 48.0 KHz
Bit depth                        : 16 bits
Compression mode                 : Lossy
Stream size                      : 176 MiB (25%)
Alignment                        : Split accross interleaves
Interleave, duration             : 42 ms (1.00 video frame)
Interleave, preload duration     : 500 ms

General
Complete name                    : /Users/noar/Downloads/Tamara.Drewe.DVDRip.2010.VOSTFR-Noar/l-tamara.cd2.avi
Format                           : AVI
Format/Info                      : Audio Video Interleave
File size                        : 698 MiB
Duration                         : 56mn 33s
Overall bit rate                 : 1 726 Kbps
Writing application              : VirtualDubMod 1.5.10.2 (build 2540/release)
Writing library                  : VirtualDubMod build 2540/release

Video
ID                               : 0
Format                           : MPEG-4 Visual
Format profile                   : Advanced Simple@L5
Format settings, BVOP            : Yes
Format settings, QPel            : No
Format settings, GMC             : No warppoints
Format settings, Matrix          : Default (H.263)
Codec ID                         : XVID
Codec ID/Hint                    : XviD
Duration                         : 56mn 33s
Bit rate                         : 1 269 Kbps
Width                            : 624 pixels
Height                           : 256 pixels
Display aspect ratio             : 2.40:1
Frame rate                       : 23.976 fps
Color space                      : YUV
Chroma subsampling               : 4:2:0
Bit depth                        : 8 bits
Scan type                        : Progressive
Compression mode                 : Lossy
Bits/(Pixel*Frame)               : 0.331
Stream size                      : 513 MiB (73%)
Writing library                  : XviD 1.2.1 (UTC 2008-12-04)

Audio
ID                               : 1
Format                           : AC-3
Format/Info                      : Audio Coding 3
Mode extension                   : CM (complete main)
Codec ID                         : 2000
Duration                         : 56mn 33s
Bit rate mode                    : Constant
Bit rate                         : 448 Kbps
Channel(s)                       : 6 channels
Channel positions                : Front: L C R, Side: L R, LFE
Sampling rate                    : 48.0 KHz
Bit depth                        : 16 bits
Compression mode                 : Lossy
Delay relative to video          : 28ms
Stream size                      : 181 MiB (26%)
Alignment                        : Split accross interleaves
Interleave, duration             : 42 ms (1.00 video frame)
Interleave, preload duration     : 500 ms

TÉLÉCHARGER "Tamara Drewe (2010) DVDRip VOSTFR" 20x PLUS VITE AVEC USENET
Anonyme&Rapide – 14 jours gratuits

Ajouter un commentaire

1 - 20 | 21 - 22
alex31dl ↑ 7.31 TB ↓ 485.06 GB Ratio: 15,43

Effectivement, petit problème de... " Q " avec les ST + deux fichiers vidéos pour le film. Rien de grave, la qualité est OK.
Comme d'hab., pour que les ST soient automatiquement lus, il suffit de renommer les fichiers SRT avec le nom de l'AVI correspondant ( ex. : " Tamara Drewe (2010).1.srt " devient " l-tamara.cd1.srt " ). Rien de bien méchant.
Merci pour l'upload !

nunita ↑ 958.52 GB ↓ 542.43 GB Ratio: 1,76

Merci ! super film

vounax ↑ 1.41 TB ↓ 1008.53 GB Ratio: 1,42

(Ce serait cool de mettre les crédits à Larceny.)

lx4user ↑ 3.98 TB ↓ 602.18 GB Ratio: 6,77

Merci, regardé hier soir avec plaisir, bonne qualité, bémol : en deux cds (pas trop génant) et sous-titres francais où les "g" sont remplacés par des "q" ???? mais ça déranqe pas trop

yochihero ↑ 3.05 TB ↓ 2.64 TB Ratio: 1,15

Merci beaucoup

babou2000 ↑ 319.01 GB ↓ 301.51 GB Ratio: 1,05

merci

PDS67 ↑ 187.92 GB ↓ 215.12 GB Ratio: 0,87

youpi merci !

Bonobo3468 ↑ 94.64 GB ↓ 95.81 GB Ratio: 0,98

merci

cosdu ↑ 295.02 GB ↓ 155.61 GB Ratio: 1,89

merci =)

pub20110106 ↑ 951.61 GB ↓ 896.97 GB Ratio: 1,06

merci

luce8 ↑ 1.66 TB ↓ 1.84 TB Ratio: 0,89

Mercii !

annestuart ↑ 2.16 TB ↓ 931.2 GB Ratio: 2,37

thanks A LOT

alex2830

Pour mes vieux !

merci !

gazouzen "Ce dont on ne se souvient pas ↑ 1.16 TB ↓ 761.75 GB Ratio: 1,55

MERCI

4121eric ↑ 1.24 TB ↓ 1.07 TB Ratio: 1,15

Pour ma part je n'ai pas ST. Et il est bien d'indiquer que c'est en deux CD :-o

noardesir ↑ 148.07 GB ↓ 93.57 GB Ratio: 1,58

Salut Steph,

Je pige pas trop en faite, moi sur la page j'ai l'image de l'affiche en haut, et en bas dans format audio j'ai : Version Original Sous Titrée...

Par contre je n'avais pas trouvé le format video, mais si tu me dis que PAL c'est 25 fps...alors c'est PAL, j'update.

++

steph10484 ↑ 33.97 TB ↓ 3.76 TB Ratio: 9,04

Image manquante ou de taille incorrecte:
Si manquante, corrige ceci en hébergeant une image (200x260 minimum) sur:
http://www.casimages.com
http://www.photomaniak.com
http://www.photomania.com (XXX autorisé
Ensuite récupère le lien et colle-le dans des balises (Invalid img). Si l'image dépasse les 480x640, utilise une balise (Invalid img).

Si de taille inférieure à 200x260, remplace l'image par une autre qui respecte les dimensions demandées.
Si de taille supérieure à 480x640, utilise une balise (Invalid img) à la place de (Invalid img), pour un redimensionnement automatique.
Les bannières ou bandeaux issus de générateur de présentations sont aussi concernés.

Format Audio/Vidéo incomplet:
Edite ton upload pour corriger et sélectionner une des options.
Format Audio:
- Version Française.
- Version Québécoise.
- Version Anglaise.
- Version Originale Sous-Titré.
- Version Multilingues.

Format Vidéo:
NTSC = 23.9-24 et 29.9-30 Images/s.
PAL = 25 Images/s.

Détails disponibles pour les formats vidéo, sur ce sujet du Forum:
http://www.torrent411.com/forum.php?page=viewtopic&t=13093

Orochibi ↑ 264.85 GB ↓ 342.08 GB Ratio: 0,77

Thx a lot

doigtsdepied ↑ 676.5 GB ↓ 495.56 GB Ratio: 1,36

amer scie....

noardesir ↑ 148.07 GB ↓ 93.57 GB Ratio: 1,58

Avec plaisir !

1 - 20 | 21 - 22
Télécharger "Tamara Drewe (2010) DVDRip VOSTFR" en illimité a une vitesse de 1000 kbps grïâce aux 14 Jours d'essai gratuit offerts par Usenet.nl!
 
Loading...