The Cove - La Baie de la honte URL Raccourcie

Télécharger "The Cove - La Baie de la honte" en illimité a une vitesse de 1000 kbps grïâce aux 14 Jours d'essai gratuit offerts par Usenet.nl!
(¯`·._.·[ The Cove - La Baie de la honte ]·._.·´¯








Origine du film : américain
Réalisateur : Louie Psihoyos
Acteurs : Aucune infos ...
Genre : Documentaire
Durée : 1h34 min
Année de production : 2009


Date de sortie : 30 septembre 2009
Bande annonce : Cliquez ici pour visualiser la bande annonce



Après s'être fait connaître dans les années 60 par la série Flipper, l'ex-dresseur de dauphins Ric O'Barry est aujourd'hui un défenseur acharné des cétacés



Qualité : DVD-R
Format : XviD
Langue : Anglais
Sous-titre : Anglais



Mot de pass : Aucun

Total du post: 699 Mo



↓↓↓ The Cove - La Baie de la honte ↓↓↓
 

www.usenet.nl

Seeders 11 Leechers 0 Téléchargements 3325
 
Télécharger Dire merci! Signaler
Voir la liste des membres qui vous remercient
↑↑↑ The Cove - La Baie de la honte ↑↑↑

Informations

Nom The Cove - La Baie de la honte
Torrent The.Cove.2009.torrent
Catégorie Documentaire
Taille totale 699.91 MB
Info Hash 7d79bdef242d8979c7a8d18b899761849cb27d50
Uploadé par Kaimi
Uploadé le 2009-12-16 22:00:40 (+00:00)
Visites 1757
évaluation 5/5 (8 votes)

Liste des Fichiers

Path Size
The.Cove.2009.avi 699.81 MB
The.Cove.2009.srt 97.45 KB

Voir le NFO

General
Complete name                    : D:\Downloads\The.Cove.2009\The.Cove.2009.avi
Format                           : AVI
Format/Info                      : Audio Video Interleave
File size                        : 700 MiB
Duration                         : 1h 31mn
Overall bit rate                 : 1 071 Kbps
Writing application              : Nandub v1.0rc2
Writing library                  : Nandub build 1853/release

Video
ID                               : 0
Format                           : MPEG-4 Visual
Format profile                   : AdvancedSimple@L5
Format settings, BVOP            : Yes
Format settings, QPel            : No
Format settings, GMC             : No warppoints
Format settings, Matrix          : Default (H.263)
Muxing mode                      : Packed bitstream
Codec ID                         : XVID
Codec ID/Hint                    : XviD
Duration                         : 1h 31mn
Bit rate                         : 926 Kbps
Width                            : 576 pixels
Height                           : 320 pixels
Display aspect ratio             : 16:9
Frame rate                       : 23.976 fps
Resolution                       : 24 bits
Colorimetry                      : 4:2:0
Scan type                        : Progressive
Bits/(Pixel*Frame)               : 0.209
Stream size                      : 605 MiB (86%)
Writing library                  : XviD 1.3.0.dev55

Audio
ID                               : 1
Format                           : MPEG Audio
Format version                   : Version 1
Format profile                   : Layer 3
Format_Settings_Mode             : Joint stereo / MS Stereo
Codec ID                         : 55
Codec ID/Hint                    : MP3
Duration                         : 1h 31mn
Bit rate mode                    : Variable
Bit rate                         : 132 Kbps
Channel(s)                       : 2 channels
Sampling rate                    : 48.0 KHz
Resolution                       : 16 bits
Video delay                      : 8ms
Stream size                      : 86.4 MiB (12%)
Alignment                        : Aligned on interleaves
Interleave, duration             : 24 ms (0.58 video frame)
Interleave, preload duration     : 450 ms

TÉLÉCHARGER "The Cove - La Baie de la honte" 20x PLUS VITE AVEC USENET
Anonyme&Rapide – 14 jours gratuits

Ajouter un commentaire

1 - 20 | 21 - 32
Pif586

Bonjour, je cherche ce documentaire en VOSTFR. Car celui-ci ne l'est pas ?

ahmes ↑ 264.92 GB ↓ 53.56 GB Ratio: 4,94

Merci!!!! à faire partager un max!!! scandaleux!!!

teddy2012 p181153 sur le PSN ↑ 852.64 GB ↓ 744 GB Ratio: 1,14

Choc mais en anglais...

lacie13 ↑ 1.75 TB ↓ 1.53 TB Ratio: 1,13

MERCI


http://www.seashepherd.org

iwdiwd ↑ 499.96 GB ↓ 417.35 GB Ratio: 1,19

merci

baboun777 ↑ 5.11 TB ↓ 750.7 GB Ratio: 6,96

Documentaire choc, je n'avais pas cette vue des japonais. je les pensais plus respectueux de la nature.

Tuckk

Merci!

Smauggy ↑ 328.78 GB ↓ 409.23 GB Ratio: 0,80

Pourquoi vous voulez en FR? c'est laid

deadmann6410 ↑ 1.12 TB ↓ 1.32 TB Ratio: 0,84

aparement ya une version francaise sur allotracker

weedkaz

Merci beaucoup!

Kaimi ↑ 1.58 TB ↓ 1.33 TB Ratio: 1,18

il l'était... désolé les modérateurs l'ont retirés...

Kaimi ↑ 1.58 TB ↓ 1.33 TB Ratio: 1,18

voilà! il est maintenant dispo sur le site

ppdu13

Tu seras au top si tu arrives a l'avoir !!

Perso je l'ai vu , il faut le faire partager a un maximum de personnes !

Kaimi ↑ 1.58 TB ↓ 1.33 TB Ratio: 1,18

my bad, c'est finalement sorti en francais, je vais aller voir si je peux me le procurer.

Kaimi ↑ 1.58 TB ↓ 1.33 TB Ratio: 1,18

malheureusement il n'y a pas de traduction à ce jours. Anglais uniquement avec sous-titre...

renao ↑ 339.48 GB ↓ 403.03 GB Ratio: 0,84

Serait-ce possible d'avoir ce MAGNIFIQUE documentaire en DVD-R français svp ?

louloutte28 ↑ 506.83 GB ↓ 449.26 GB Ratio: 1,12

Merci beaucoup!

sylvanareg ↑ 409.35 GB ↓ 478.71 GB Ratio: 0,85

MERCI BCP, à voir et faire tourner !!!

qbase ↑ 25 GB ↓ 4.4 TB Ratio: 0,00

Jai aucun mot face a toute cett bestialité!!
C un horrreeuurr c pa humain!

qbase ↑ 25 GB ↓ 4.4 TB Ratio: 0,00

Jai aucun mot face a toute cett bestialité!!
C un horrreeuurr c pa humain!

1 - 20 | 21 - 32
Télécharger "The Cove - La Baie de la honte" en illimité a une vitesse de 1000 kbps grïâce aux 14 Jours d'essai gratuit offerts par Usenet.nl!
 
Loading...