The.Human.Centipede.2011.TRUEFRENCH.DVDRiP.XViD-LEGiON URL Raccourcie

Télécharger "The.Human.Centipede.2011.TRUEFRENCH.DVDRiP.XViD-LEGiON" en illimité a une vitesse de 1000 kbps grïâce aux 14 Jours d'essai gratuit offerts par Usenet.nl!

The Human Centipede (First Sequence)










Origine du film : Pays-Bas


Réalisateur : Tom Six


Acteurs : Dieter Laser, Ashley C. Williams, Andreas Leupold, Akihiro Kitamura, Ashlynn Yennie


Genre : Epouvante-horreur


Durée : 1h30min


Date de sortie : Octobre 2011


Année de production : 2009


Titre Original : The Human Centipede (First Sequence)


Critiques Spectateurs :  3/5


Critiques Presse : /5






Une nuit, deux jeunes américaines en voyage à travers l'Europe, tombent en panne en plein milieu d'une forêt. Par chance, elles découvrent une maison dans laquelle vit un ancien chirurgien allemand, le docteur Heiter. Ravies d'y trouver refuge, elles sont alors loin d'imaginer qu'elles vont devenir les cobayes d'une expérience chirurgicale inédite : le médecin entend en effet créer un mille-pattes humain en les reliant entre elles par un seul et même tube digestif.




Qualité : DVDRiP


Format : AVi


Langue : Français




↓↓↓ The.Human.Centipede.2011.TRUEFRENCH.DVDRiP.XViD-LEGiON ↓↓↓
 

www.usenet.nl

Seeders 160 Leechers 1 Téléchargements 29318
 
Télécharger Dire merci! Signaler
Voir la liste des membres qui vous remercient
↑↑↑ The.Human.Centipede.2011.TRUEFRENCH.DVDRiP.XViD-LEGiON ↑↑↑

Informations

Nom The.Human.Centipede.2011.TRUEFRENCH.DVDRiP.XViD-LEGiON
Torrent The.Human.Centipede.2011.TRUEFRENCH.DVDRiP.XViD-LEGiON.avi.torrent
Catégorie Film
Taille totale 701.55 MB
Info Hash 279dc08d4def014d6cbbd67318c788bd8250ef5b
Uploadé par JohnDoe
Uploadé le 2011-10-15 18:09:45 (+00:00)
Visites 24653
évaluation 4.5/5 (178 votes)

Liste des Fichiers

Path Size
The.Human.Centipede.2011.TRUEFRENCH.DVDRiP.XViD-LEGiON.avi 701.55 MB

Voir le NFO

-------------------------------------------------------------------------------
                              General Information
-------------------------------------------------------------------------------




-------------------------------------------------------------------------------
                                 Release Notes
-------------------------------------------------------------------------------
The.Human.Centipede.2011.TRUEFRENCH.DVDRiP.XViD-LEGiON.avi
Format                           : AVI
Format/Info                      : Audio Video Interleave
File size                        : 702 MiB
Duration                         : 1h 28mn
Overall bit rate                 : 1 113 Kbps
Movie name                       : 
The.Human.Centipede.2011.TRUEFRENCH.DVDRiP.XViD-LEGiON
Writing application              : Lavf52.33.0
Original source form/Name        : THE_HUMAN_CENTIPEDE

Video
ID                               : 0
Format                           : MPEG-4 Visual
Format profile                   : Simple@L3
Format settings, BVOP            : No
Format settings, QPel            : No
Format settings, GMC             : No warppoints
Format settings, Matrix          : Default (H.263)
Codec ID                         : XVID
Codec ID/Hint                    : XviD
Duration                         : 1h 28mn
Bit rate                         : 972 Kbps
Width                            : 624 pixels
Height                           : 352 pixels
Display aspect ratio             : 16:9
Frame rate                       : 25.000 fps
Color space                      : YUV
Chroma subsampling               : 4:2:0
Bit depth                        : 8 bits
Scan type                        : Progressive
Bits/(Pixel*Frame)               : 0.177
Stream size                      : 613 MiB (87%)
Writing library                  : XviD 1.2.1 (UTC 2008-12-04)

Audio
ID                               : 1
Format                           : MPEG Audio
Format version                   : Version 1
Format profile                   : Layer 3
Mode                             : Joint stereo
Mode extension                   : MS Stereo
Codec ID                         : 55
Codec ID/Hint                    : MP3
Duration                         : 1h 28mn
Bit rate mode                    : Constant
Bit rate                         : 128 Kbps
Channel(s)                       : 2 channels
Sampling rate                    : 48.0 KHz
Stream size                      : 80.6 MiB (11%)
Alignment                        : Aligned on interleaves
Interleave, duration             : 24 ms (0.60 video frame)


TÉLÉCHARGER "The.Human.Centipede.2011.TRUEFRENCH.DVDRiP.XViD-LEGiON" 20x PLUS VITE AVEC USENET
Anonyme&Rapide – 14 jours gratuits

Ajouter un commentaire

1 - 20 | 21 - 40 | 41 - 60 | ... | 161 - 180 | 181 - 200 | 201 - 215
quentin61400 ↑ 2.33 TB ↓ 1.05 TB Ratio: 2,21

Film de tordu mais bien fait pas mal du tout jdirai 7 sur 10

ASAP70 ↑ 153.8 GB ↓ 128.85 GB Ratio: 1,19

Merci pour le partage

Eliottess ↑ 6.94 TB ↓ 1.01 TB Ratio: 6,89

Je suis curieuse de voir ça de puis qu'on m'en a parlé.
C'est parti ...

yaniss57 ↑ 1.22 TB ↓ 1.27 TB Ratio: 0,96

Immonde a gerber faut vraiment être tordu pour écrire un scénario pareil ...

algolis ↑ 95.08 GB ↓ 57.28 GB Ratio: 1,65

merci!!! pur delire ce film

Twitch31 ↑ 287.1 GB ↓ 345.63 GB Ratio: 0,83

Thx pour le film

julien2307 ↑ 77.36 GB ↓ 17.58 GB Ratio: 4,39

Merci pour le partage. Film très... dérangeant....

lebidou35

Un film sans queue ni tête

Orochi666 ↑ 401.04 GB ↓ 345.3 GB Ratio: 1,16

je me suis bien fait chier

le réalisateur c'est juste un gros scato T_T
j'ai trouver les films très débile....
mais merci pour le partage

Karadan94 ↑ 90.73 GB ↓ 95.35 GB Ratio: 0,95

on ma dis que du bien de ce film ! Merci

dallas64 ↑ 4.91 TB ↓ 2.73 TB Ratio: 1,80

merci-

Astrofisik ↑ 96.66 GB ↓ 103.54 GB Ratio: 0,93

meerci bonne qualité en effet, et bien baré

kyrlianaline ↑ 270.13 GB ↓ 110.96 GB Ratio: 2,43

j'ai bien aimée et bonne qualité

mokrane2013 ↑ 247.22 GB ↓ 204.2 GB Ratio: 1,21

wawe!!!quel imagination ,quel film!!!!!quelque chose de nouveau ,personnellement j ai bien aimè ,il ya le deuxième mais on vost ,merci

Shinigami69 Shinigami ↑ 1.37 TB ↓ 530 GB Ratio: 2,63

Merci de seeder à mort !!!

daveystyle26 ↑ 243.32 GB ↓ 242.42 GB Ratio: 1,00

Ce film là trou l'cul !!!

Ammo1632 ↑ 91.24 GB ↓ 64.5 GB Ratio: 1,41

Pour ceux qui veulent voir de la viande en vrac, regardez le deuxième, vous serrez pas déçu. Mais c'est aussi la force du premier, ca tourne au thriller mais avec... une chenille!
Merci

ganjitow ↑ 1.04 TB ↓ 1.34 TB Ratio: 0,78

à voir uniquement sous l'influence de produits ^^
Bien trash comme film, et le pire c'est qu'arrivé à un moment, on accroche, on veut savoir ce qui va arriver au trio

leechao77 c'est l'hymne de nos campagnes ↑ 109.77 GB ↓ 31.16 GB Ratio: 3,52

non mais lol c'est quoi ce film ?
Nul de chez nul! dégeulase !
j'ai survoler le films . un navet sans intéret !

de plus la qualité de la vidéo est pas terrible on dirait pas que ça date de 2011 .
le son est bon mais l'image bof bof ça passe.

Assieds-toi près d'un vieux chêne
Et compare-le à la race humaine
L'oxygène et l'ombre qu'il t'amènent
Méritent-t-ils les coups de hache qui le saignent ?
Lève la tête, regarde ses feuilles
Tu

mcfly621359 ↑ 600.52 GB ↓ 549.07 GB Ratio: 1,09

rien à dire sur la qualité du fichier. merci

1 - 20 | 21 - 40 | 41 - 60 | ... | 161 - 180 | 181 - 200 | 201 - 215
Télécharger "The.Human.Centipede.2011.TRUEFRENCH.DVDRiP.XViD-LEGiON" en illimité a une vitesse de 1000 kbps grïâce aux 14 Jours d'essai gratuit offerts par Usenet.nl!
 
Loading...