Western (E. Poirier) [XviD] URL Raccourcie

Télécharger "Western (E. Poirier) [XviD]" en illimité a une vitesse de 1000 kbps grïâce aux 14 Jours d'essai gratuit offerts par Usenet.nl!
Western est un film français réalisé par Manuel Poirier, sorti le 27 août 1997.



( le texte ci-dessous est extrait de http://fr.wikipedia.org/wiki/Western_%28film%29 )


Un homme prend un autostoppeur qui ne tarde pas à la lui voler sa voiture. Il est conduit au commissariat par une femme dont il tombe très rapidement amoureux. À la demande de cette dernière, ils conviennent de rester trois semaines sans se voir pour tester leur amour. Dans l'intervalle, il erre au gré des rencontres sur les routes de Bretagne en compagnie de son voleur qu'il a recroisé...

Récompenses
   * César de la meilleure musique pour Bernardo Sandoval.
   * Prix du Jury au Festival de Cannes 1997



↓↓↓ Western (E. Poirier) [XviD] ↓↓↓
 

www.usenet.nl

Seeders 7 Leechers 0 Téléchargements 1224
 
Télécharger Dire merci! Signaler
Voir la liste des membres qui vous remercient
↑↑↑ Western (E. Poirier) [XviD] ↑↑↑

Informations

Nom Western (E. Poirier) [XviD]
Torrent Western.torrent
Catégorie Film
Taille totale 698.09 MB
Info Hash 7a13456827cc8d08a30032432467830f5a4fabe8
Uploadé par buserror
Uploadé le 2010-03-13 16:15:10 (+00:00)
Visites 642
évaluation 4.9/5 (7 votes)

Liste des Fichiers

Path Size
Western.avi 698.09 MB

Voir le NFO

General
Complete name                    : Western.avi
Format                           : AVI
Format/Info                      : Audio Video Interleave
File size                        : 698 MiB
Duration                         : 2h 8mn
Overall bit rate                 : 762 Kbps
Writing application              : VirtualDubMod 1.5.10.2 (build 2542/release)
Writing library                  : VirtualDubMod build 2542/release

Video
ID                               : 0
Format                           : MPEG-4 Visual
Format profile                   : AdvancedSimple@L5
Format settings, BVOP            : Yes
Format settings, QPel            : No
Format settings, GMC             : No warppoints
Format settings, Matrix          : Default (H.263)
Codec ID                         : XVID
Codec ID/Hint                    : XviD
Duration                         : 2h 8mn
Bit rate                         : 646 Kbps
Width                            : 512 pixels
Height                           : 272 pixels
Display aspect ratio             : 1.882
Frame rate                       : 25.000 fps
Resolution                       : 24 bits
Colorimetry                      : 4:2:0
Scan type                        : Progressive
Bits/(Pixel*Frame)               : 0.185
Stream size                      : 592 MiB (85%)
Writing library                  : XviD 1.1.0 (UTC 2005-11-22)

Audio
ID                               : 1
Format                           : MPEG Audio
Format version                   : Version 1
Format profile                   : Layer 3
Codec ID                         : 55
Codec ID/Hint                    : MP3
Duration                         : 2h 8mn
Bit rate mode                    : Variable
Bit rate                         : 103 Kbps
Minimum bit rate                 : 32.0 Kbps
Channel(s)                       : 2 channels
Sampling rate                    : 44.1 KHz
Resolution                       : 16 bits
Stream size                      : 94.6 MiB (14%)
Alignment                        : Aligned on interleaves
Interleave, duration             : 26 ms (0.65 video frame)
Writing library                  : LAME3.97b
Encoding settings                : -m j -V 4 -q 3 -lowpass 17.5 --vbr-old -b 32


TÉLÉCHARGER "Western (E. Poirier) [XviD]" 20x PLUS VITE AVEC USENET
Anonyme&Rapide – 14 jours gratuits

Ajouter un commentaire

Gargamel78 ↑ 1020.68 GB ↓ 253.9 GB Ratio: 4,02

Super heureux de revoir ce film que j'avais adoré en salle à l'époque.

Grand merci buserror... Leecher de choix !

kryptat411 ↑ 1.33 TB ↓ 982.75 GB Ratio: 1,38

Sublimissime, j'adore Sergi Lopez... ainsi que le duo avec son compagnon de route Sacha Bourdo.
Merci beaucoup pour cette perle !

Vive le cinéma Français !!!

xtrempi ↑ 869.97 GB ↓ 789.66 GB Ratio: 1,10

Merci, dommage que la qualité ne soit pas au rdv.
V:5
A:6

licorne73 ↑ 1.51 TB ↓ 1.1 TB Ratio: 1,36

merci

2emeagauche ↑ 517.04 GB ↓ 474.14 GB Ratio: 1,09


merci je le reverrais avec beaucoup de plaisir

Mendelson26 ↑ 1.32 TB ↓ 1.28 TB Ratio: 1,02

Je garde un excellent souvenir de la projection en salle, à l'époque. Merci de partager de semblables pépites!

nicol66 ↑ 704.23 GB ↓ 907.46 GB Ratio: 0,77

merci beaucoup

factotum ↑ 484.93 GB ↓ 577.44 GB Ratio: 0,83

merci beaucoup très bon film

oranghutan ↑ 2.21 TB ↓ 2.21 TB Ratio: 0,99

bon film

mathieu6464 ↑ 259.76 GB ↓ 176.65 GB Ratio: 1,47

c'est un super film

Télécharger "Western (E. Poirier) [XviD]" en illimité a une vitesse de 1000 kbps grïâce aux 14 Jours d'essai gratuit offerts par Usenet.nl!
 
Loading...