Wu xia BDRip VOSTFR Xvid AC3 URL Raccourcie

Télécharger "Wu xia BDRip VOSTFR Xvid AC3" en illimité a une vitesse de 1000 kbps grïâce aux 14 Jours d'essai gratuit offerts par Usenet.nl!

(¯`·._.·[  Wu xia VOSTFR   ]·._.·´¯)






Origine du film : Hong-Kong
Titre Original : 武俠 / Dragon / Swordsmen
Réalisateur : Peter Ho-Sun Chan
Acteurs : Donnie Yen / Takeshi Kaneshiro / Kara Hui / Jimmy Wang Yu
Genre : Action / Arts Martiaux / Drame
Durée : 1H54 mins
Date de sortie : 4 Juillet 2011
Critiques spectateurs : 7.2 (ImDB)
Bande annonce :

 



Sous la dynastie Qing, Liu Jin-xi, fabricant de papier, mène une vie paisible dans un village isolé avec sa femme Ayu et ses deux enfants.

Mais l'arrivée d'un détective va bouleverser leur existence...


Qualité : HDrip
Format : XviD
Codec Video : Xvid
Codec Audio : Ac3
Langue :  Mandarin
Sous-titre : Français
Taille de l'upload : 1.2 Go ou 1200 Mo

Hébergé sur Seedbox : Oui



↓↓↓ Wu xia BDRip VOSTFR Xvid AC3 ↓↓↓
 

www.usenet.nl

Seeders 2 Leechers 0 Téléchargements 1520
 
Télécharger Dire merci! Signaler
Voir la liste des membres qui vous remercient
↑↑↑ Wu xia BDRip VOSTFR Xvid AC3 ↑↑↑

Informations

Nom Wu xia BDRip VOSTFR Xvid AC3
Torrent Wuxia BDrip Vostfr Xvid AC3.torrent
Catégorie Film
Taille totale 1.2 GB
Info Hash cf524453a0899a2e27188ac2335ad35e82bbdc14
Uploadé par Sleilo
Uploadé le 2011-10-03 03:23:38 (+00:00)
Visites 687
évaluation 4.1/5 (10 votes)

Liste des Fichiers

Path Size
Wuxia.avi 1.2 GB
Wuxia.srt 69.38 KB

Voir le NFO

 ■General

Complete name                    : C:\Users\Cohars\Desktop\Wuxia BDrip Vostfr Xvid AC3\Wuxia.avi

Format                           : AVI

Format/Info                      : Audio Video Interleave

Format profile                   : OpenDML

Format settings                  : rec

File size                        : 1.20 GiB

Duration                         : 1h 54mn

Overall bit rate                 : 1 495 Kbps

Writing application              : AVI-Mux GUI 1.17.8.3, Feb 16 201019:42:50



Video

ID                               : 0

Format                           : MPEG-4 Visual

Format profile                   : Advanced Simple@L5

Format settings, BVOP            : 2

Format settings, QPel            : No

Format settings, GMC             : No warppoints

Format settings, Matrix          : Default (H.263)

Muxing mode                      : Packed bitstream

Codec ID                         : XVID

Codec ID/Hint                    : XviD

Duration                         : 1h 54mn

Bit rate                         : 1 106 Kbps

Width                            : 720 pixels

Height                           : 304 pixels

Display aspect ratio             : 2.35:1

Frame rate                       : 24.000 fps

Color space                      : YUV

Chroma subsampling               : 4:2:0

Bit depth                        : 8 bits

Scan type                        : Progressive

Compression mode                 : Lossy

Bits/(Pixel*Frame)               : 0.211

Stream size                      : 910 MiB (74%)

Writing library                  : XviD 64



Audio

ID                               : 1

Format                           : AC-3

Format/Info                      : Audio Coding 3

Mode extension                   : CM (complete main)

Codec ID                         : 2000

Duration                         : 1h 54mn

Bit rate mode                    : Constant

Bit rate                         : 384 Kbps

Channel(s)                       : 6 channels

Channel positions                : Front: L C R, Side: L R, LFE

Sampling rate                    : 48.0 KHz

Bit depth                        : 16 bits

Compression mode                 : Lossy

Stream size                      : 316 MiB (26%)

Alignment                        : Aligned on interleaves

Interleave, duration             : 64 ms (1.54 video frames)

Interleave, preload duration     : 192 ms



Ajouter un commentaire

1 - 20 | 21 - 28
lolitalacoquine ↑ 49.35 GB ↓ 13.69 GB Ratio: 3,60

je n"ai pas eu les sous titre pourquoi !

lolitalacoquine ↑ 49.35 GB ↓ 13.69 GB Ratio: 3,60

Super je kiff cette acteur

valerian67 ↑ 53.72 GB ↓ 39.22 GB Ratio: 1,36

Encore un GRAND MERCI POUR LA VOST FR, je ne peux plus m'en passer donc merci à ceux qui prennent le temps de mettre en ligne ce genre d'up !

msmyrtille ↑ 2.55 TB ↓ 1014.48 GB Ratio: 2,57

Film tout a fait intéressant. Plutôt policier au début, arts martiaux dans la deuxième partie. Des questionnements sur la possibilité pour quelqu'un de changer, sur les répercussions des actions des uns sur les autres.

Images, sons et sous-titres fonctionnaient parfaitement sur mon ordi.

enduro13 ↑ 429.36 GB ↓ 339.46 GB Ratio: 1,26

merci pour le up mais le sous titre n'a pas fonctionné avec moi alors du coup on comprend pas trop ce qui ce passe deux trois scenes de combats seulement donc a vous de voir si ça vaut le coup ou pas???
note 6/10

Tilzin ↑ 373.12 GB ↓ 209.84 GB Ratio: 1,77

Merci bcp excellente qualité du UP (Image/son/sous titres)

Sleilo ↑ 4.02 TB ↓ 1.52 TB Ratio: 2,65

Présentation remise à jour

Sleilo ↑ 4.02 TB ↓ 1.52 TB Ratio: 2,65

@Sunako5 : Autant pour moi ^^' désolé  pour l'erreur et merci pour ta précision

meychou ↑ 299.54 GB ↓ 104.64 GB Ratio: 2,86

merci

sangoi34 ↑ 598.13 GB ↓ 597.03 GB Ratio: 1,00

Merci 10000000000 fois pour ce film que j'attendais depuis longtemps....chia chia l'uploadeur

Sunako5 ↑ 170.83 GB ↓ 210.62 GB Ratio: 0,81

Non ce n'est pas du mandarin non plus dommage sur les 2 films que je DL je tombe 2 fois sur du cantonais ^^ mais merci quand meme

vince1969

merci

cvosst ↑ 5.39 TB ↓ 4.94 TB Ratio: 1,09

Merci pour le up, je ne l'ai pas encore regardé faute de son es ce normal ou suis-je le seul a avoir ce soucis???

vosst

KIMDUNG ↑ 146.42 GB ↓ 122.12 GB Ratio: 1,19

merci bon film...

anguilles ↑ 1.3 TB ↓ 1.08 TB Ratio: 1,19

Très très bon film. j'y suis pourtant allé avec quelques a priori... comme quoi l'affiche ne fait pas le film.

pllmall98 ↑ 3.47 TB ↓ 3.17 TB Ratio: 1,09

Magnifique !!! Un bijou...trop fan...

sullym ↑ 15.86 TB ↓ 3.83 TB Ratio: 4,13

Merci!!!

nnaarruu ↑ 15.31 TB ↓ 11.25 TB Ratio: 1,36

merci beaucoup

dam1976 ↑ 736.05 GB ↓ 690.37 GB Ratio: 1,06

un grand merci

hanayama01 ↑ 1.9 TB ↓ 2.13 TB Ratio: 0,88

mci beaucoup rare hk

1 - 20 | 21 - 28
Télécharger "Wu xia BDRip VOSTFR Xvid AC3" en illimité a une vitesse de 1000 kbps grïâce aux 14 Jours d'essai gratuit offerts par Usenet.nl!
 
Loading...