Alien le 8eme passager french dts 720p HD Rip Ben35130 URL Raccourcie

Télécharger "Alien le 8eme passager french dts 720p HD Rip Ben35130" en illimité a une vitesse de 1000 kbps grïâce aux 14 Jours d'essai gratuit offerts par Usenet.nl!

(¯`·._.·[ Alien le huitième passager ]·._.·´¯)




Réalisateur(s) : Ridley Scott
Pays : britannique , américain
Acteur(s) : Sigourney Weaver, Tom Skerritt, Veronica Cartwright
Genre : Science fiction , Epouvante-horreur , Thriller  
Durée : 01h56mn
Date de sortie : 1979
Titre Original : Alien  
Distribué par : Twentieth Century Fox



Le vaisseau commercial Nostromo et son équipage, sept hommes et femmes, rentrent sur Terre avec une importante cargaison de minerai. Mais lors d'un arrêt forcé sur une planète déserte, l'officier Kane se fait agresser par une forme de vie inconnue, une arachnide qui étouffe son visage.
Après que le docteur de bord lui retire le spécimen, l'équipage retrouve le sourire et dîne ensemble. Jusqu'à ce que Kane, pris de convulsions, voit son abdomen perforé par un corps étranger vivant, qui s'échappe dans les couloirs du vaisseau...




Qualité : HD Rip 720 P
Format : MKV
Langue : Francais
Sous-titre : Aucun
Nombre de fichiers : 1 Fichiers
Total du post: 4370 Mo


Format Audio : Français
Format Vidéo : NTSC





↓↓↓ Alien le 8eme passager french dts 720p HD Rip Ben35130 ↓↓↓
 

www.usenet.nl

Seeders 15 Leechers 0 Téléchargements 2581
 
Télécharger Dire merci! Signaler
Voir la liste des membres qui vous remercient
↑↑↑ Alien le 8eme passager french dts 720p HD Rip Ben35130 ↑↑↑

Informations

Nom Alien le 8eme passager french dts 720p HD Rip Ben35130
Torrent Alien le 8eme passager french720p HD Rip by ben35130.torrent
Catégorie Film
Taille totale 4.37 GB
Info Hash 2c58da0d481dff470adbfffd1202bc2be4394d89
Uploadé par ben35130
Uploadé le 2011-11-01 11:08:58 (+00:00)
Visites 3657
évaluation 4.9/5 (27 votes)

Liste des Fichiers

Path Size
Alien 1.mkv 4.37 GB

Voir le NFO

General

Format                           : Matroska
Format version                   : Version 2
File size                        : 4.37 GiB
Duration                         : 1h 55mn
Overall bit rate                 : 5 404 Kbps
Encoded date                     : UTC 2010-12-11 19:51:49
Writing application              : mkvmerge v2.7.0 
Writing library                  : libebml v0.7.7 + libmatroska v0.8.1

Video
ID                               : 1
Format                           : AVC
Format/Info                      : Advanced Video Codec
Format profile                   : High@L4.1
Format settings, CABAC           : Yes
Format settings, ReFrames        : 5 frames
Codec ID                         : V_MPEG4/ISO/AVC
Duration                         : 1h 55mn
Bit rate                         : 4 635 Kbps
Width                            : 1 280 pixels
Height                           : 544 pixels
Display aspect ratio             : 2.35:1
Frame rate                       : 23.976 fps
Color space                      : YUV
Chroma subsampling               : 4:2:0
Bit depth                        : 8 bits
Scan type                        : Progressive
Bits/(Pixel*Frame)               : 0.278
Stream size                      : 3.67 GiB (84%)

Audio
ID                               : 2
Format                           : DTS
Format/Info                      : Digital Theater Systems
Codec ID                         : A_DTS
Duration                         : 1h 55mn
Bit rate mode                    : Constant
Bit rate                         : 755 Kbps
Channel(s)                       : 6 channels
Channel positions                : Front: L C R, Side: L R, LFE
Sampling rate                    : 48.0 KHz
Bit depth                        : 24 bits
Compression mode                 : Lossy
Stream size                      : 625 MiB (14%)
Title                            : DTS 768 Kbps
Language                         : French

Text
ID                               : 3
Format                           : UTF-8
Codec ID                         : S_TEXT/UTF8
Codec ID/Info                    : UTF-8 Plain Text
Title                            : Forced
Language                         : French

TÉLÉCHARGER "Alien le 8eme passager french dts 720p HD Rip Ben35130" 20x PLUS VITE AVEC USENET
Anonyme&Rapide – 14 jours gratuits

Ajouter un commentaire

1 - 20 | 21 - 22
julparty ↑ 979.6 GB ↓ 334.56 GB Ratio: 2,92

merci QUALITE EXCELLENTE !!!!

ben35130 ↑ 14.69 TB ↓ 3.62 TB Ratio: 4,06

Dvd rom ? Un lecteur pc ? Si oui, effectivement il peut être lu sur pc avec un lecteur (logiciel) adéquat : genre vlc. Cela sous entend de graver le fichier sur un dvd. (vu la taille du fichier ca devrait passer sur un dvd simple couche)

gabin49 ↑ 520.4 GB ↓ 688.64 GB Ratio: 0,75

Merci infiniment pour cet upload, je le cherchais justement en HD 720p !

rulmapulus ↑ 1.13 TB ↓ 654.89 GB Ratio: 1,76

Parfait, qualité son et vidéo nikel. Torrent de qualité pour un film mythique. Merci bien

N'oubliez pas d'acheter les �uvres si vous les aimez !

cagoince ↑ 886.64 GB ↓ 680.73 GB Ratio: 1,30

tres content de trouver ce film!! merci bcp

didiku ↑ 1.68 TB ↓ 1.43 TB Ratio: 1,17

Merci excellente qualité, après ma déception pour prometeheus ça fait plaisir de se refaire le premier et le meilleur de Ridley Scoth.

�MBP13" fin 2011�OSxMavericks� Intel HD Graphics 3000 384 MB�2.4 GHz Intel Core i5�8 Go.
�PS3 Slim 320 Go�PS2�PS1�Wii 4.3 LetterBomb�iPhone5 iOs7.0.4 jailbreaké evasi0n�iPad 4 iOs 7.0.4.

VanDaiFruiSaik ↑ 97.99 TB ↓ 1.71 TB Ratio: 57,27

Merci à l'uploader

Nespress ↑ 263.28 GB ↓ 140.04 GB Ratio: 1,88

Top merci énormément !

CranKzY ↑ 482.38 GB ↓ 589.58 GB Ratio: 0,81

merci pour ce film

dieuhades ↑ 2.15 TB ↓ 2.15 TB Ratio: 1,00

salut, je souhaiterai savoir si c'est la dernière version du coffret anthologie édition limité car il y a plusieurs coffret anthologie. le dernier alien est remasterisé en  4 k ?

Albatrossrod Fluctuat nec mergitur ↑ 799.82 GB ↓ 714.85 GB Ratio: 1,11

Bonne qualité son et image. Aucun soucis merci.

Merci pour le partage
Merci à T411.

Gizmo38400 ↑ 782.8 GB ↓ 1013.42 GB Ratio: 0,77

Merci ! Vais pouvoir me remettre dans le bain avant à la sortie de Prometheus en Juin 2012

Cav2 ↑ 46.97 TB ↓ 9.27 TB Ratio: 5,06

Merci

titus1973 ↑ 1.8 TB ↓ 2.41 TB Ratio: 0,74

PARFAIT MERCI

pticlode ↑ 2.09 TB ↓ 1.31 TB Ratio: 1,59

excellent merci

kromm26 ↑ 7.89 TB ↓ 4.93 TB Ratio: 1,59

Je dis Bravo... Un film Cultissime même si pour moi le deuxième est encore plus fort!!! Si possible de le mettre en Blue ray je prends de suite!! Merci merci!!

"Tu fais une montagne du domaine de l'Himalaya"

fifililou ↑ 16.45 TB ↓ 9.09 TB Ratio: 1,80

PS la qualité de l'image dépasse largement celle de l'époque ou j'ais vue pour la premiére fois ce film, même au ciné l'image n'était pas aussi net que celui ci PS de PS Big MERCI. Ciao ciao

fifililou ↑ 16.45 TB ↓ 9.09 TB Ratio: 1,80

Merci, le son, l'image d'une parfaite qualité. le film est marrant à souhait encore merci tout spécialement à l'uploadeur en un mot "super"

shudacr Le titouti c'est la vie ↑ 3.52 TB ↓ 2.99 TB Ratio: 1,17

Torrent Ok!
Merci pour ta participation! Bon download aux autres.
N'oubliez pas de remercier! Les uploadeurs travaillent pour vous et assurent ainsi la diversité des fichiers sur t411.
Un merci, un commentaire et rester en seed, ça fait plaisir à l'uploader.


PS : vu qu'il y a un petit problème avec le format audio/vidéo en ce moment sur le site, du coup, j'ai édité ton torrent et je l'ai mit dans la prez
Cordialement

ben35130 ↑ 14.69 TB ↓ 3.62 TB Ratio: 4,06

J'ai corrigé le titre du torrent ! J'espère que cela conviendra.
Pour ce qui est du format audio ou vidéo, je ne comprends le fait qu'il soit incomplet.
Peux tu éclairer ma lanterne ? ( en sachant que mes autres uploads ont été faits de la même manière et qu'ils ont été validés par la communauté)
Merci par avance.

A plus
Ben

1 - 20 | 21 - 22
Télécharger "Alien le 8eme passager french dts 720p HD Rip Ben35130" en illimité a une vitesse de 1000 kbps grïâce aux 14 Jours d'essai gratuit offerts par Usenet.nl!
 
Loading...