Alien.Theory.2013.S06.EP02.Les.cranes.de.cristal.FRENCH URL Raccourcie

Télécharger "Alien.Theory.2013.S06.EP02.Les.cranes.de.cristal.FRENCH" en illimité a une vitesse de 1000 kbps grïâce aux 14 Jours d'essai gratuit offerts par Usenet.nl!







ALIEN THEORY : LES CRANES DE CRISTAL

Saison 06
Episode 02

Cette série documentaire explore la théorie des anciens astronautes sur la venue d'autres formes de vie sur terre. En examinant des textes vieux de plusieurs siècles, des hiéroglyphes, des ruines... nous nous sommes immergés au coeur des hypothèses les plus incroyables. Découvrez l'impact d'extraterrestres sur notre monde et notre développement

Origine : U.S.A
Réalisation : Jim Hense
Année de production : 2013
Durée du Doc : 42 Mn

Résumé : Des centaines de crânes de cristal ont été retrouvés partout dans le monde. Fabriqués à partir de cristal de roche et particulièrement prisés par les collectionneurs d'antiquités, ces objets mystérieux ne cessent de fasciner. Les amateurs d'ésotérisme leur prêtent même des dons surnaturels comme celui de la guérison physique et spirituelle. Selon une légende, treize d'entre eux détiendraient le pouvoir de révéler les secrets de l'univers...



↓↓↓ Alien.Theory.2013.S06.EP02.Les.cranes.de.cristal.FRENCH ↓↓↓
 

www.usenet.nl

Seeders 5 Leechers 0 Téléchargements 345
 
Télécharger Dire merci! Signaler
Voir la liste des membres qui vous remercient
↑↑↑ Alien.Theory.2013.S06.EP02.Les.cranes.de.cristal.FRENCH ↑↑↑

Informations

Nom Alien.Theory.2013.S06.EP02.Les.cranes.de.cristal.FRENCH
Torrent Alien.Theory.2013.S06.EP02.Les.cranes.de.cristal.FRENCH.torrent
Catégorie Documentaire
Taille totale 844.64 MB
Info Hash 604e4648a7154e8d50f975770cec5cf8a3d5c2bd
Uploadé par altano
Uploadé le 2014-02-11 00:34:58 (+00:00)
Visites 445
évaluation 4.8/5 (12 votes)

Liste des Fichiers

Path Size
Alien.Theory.2013.S06.EP02.Les.cranes.de.cristal.FRENCH/Alien.Theory.2013.S06.EP02.Les.cranes.de.cristal.FRENCH.avi 844.64 MB
Alien.Theory.2013.S06.EP02.Les.cranes.de.cristal.FRENCH/Alien.Theory.2013.S06.EP02.Les.cranes.de.cristal.FRENCH.nfo 3.54 KB

Voir le NFO

*******************************************************************************
                      Alien Theory - Les Cranes de Cristal
*******************************************************************************

-------------------------------------------------------------------------------
                               Post Information
-------------------------------------------------------------------------------
Posted by............: Altano
Posted on............: 11/02/2014

-------------------------------------------------------------------------------
                                 Release Notes
-------------------------------------------------------------------------------
General
Complete name                            : Alien.Theory.2013.S06.EP02.Les.cranes.de.cristal.FRENCH.avi
Format                                   : DivX
Format/Info                              : Hack of AVI
File size                                : 845 MiB
Duration                                 : 42mn 8s
Overall bit rate                         : 2 802 Kbps

Video
ID                                       : 0
Format                                   : MPEG-4 Visual
Format settings, BVOP                    : No
Format settings, QPel                    : No
Format settings, GMC                     : No warppoints
Format settings, Matrix                  : Default (H.263)
Codec ID                                 : DX50
Codec ID/Hint                            : DivX 5
Duration                                 : 42mn 8s
Bit rate                                 : 2 600 Kbps
Width                                    : 720 pixels
Height                                   : 400 pixels
Display aspect ratio                     : 16:9
Frame rate                               : 25.000 fps
Color space                              : YUV
Chroma subsampling                       : 4:2:0
Bit depth                                : 8 bits
Scan type                                : Progressive
Compression mode                         : Lossy
Bits/(Pixel*Frame)                       : 0.361
Stream size                              : 784 MiB (93%)
Title                                    : Video
Writing library                          : DivX 6.6.1.4

Audio
ID                                       : 1
Format                                   : MPEG Audio
Format version                           : Version 1
Format profile                           : Layer 3
Mode                                     : Joint stereo
Mode extension                           : MS Stereo
Codec ID                                 : 55
Codec ID/Hint                            : MP3
Duration                                 : 42mn 8s
Bit rate mode                            : Constant
Bit rate                                 : 192 Kbps
Channel(s)                               : 2 channels
Sampling rate                            : 48.0 KHz
Compression mode                         : Lossy
Stream size                              : 57.9 MiB (7%)
Alignment                                : Split accross interleaves
Interleave, duration                     : 40 ms (1.00 video frame)
Interleave, preload duration             : 500 ms
Title                                    : Audio
Writing library                          : LAME3.96




-------------------------------------------------------------------------------
Generated with Cool NFO Creator - http://fly.to/coolbeans
-------------------------------------------------------------------------------

TÉLÉCHARGER "Alien.Theory.2013.S06.EP02.Les.cranes.de.cristal.FRENCH" 20x PLUS VITE AVEC USENET
Anonyme&Rapide – 14 jours gratuits

Ajouter un commentaire

pierho17 ↑ 903.29 GB ↓ 571.57 GB Ratio: 1,58

joli le yin et le yang !

altano ↑ 3.23 TB ↓ 2.58 TB Ratio: 1,24

Faut envoyé un mail a rmc découverte pour qu'il se bouge sur la diffusion des épisodes
pour le moment c'est les saisons 6 et 5 dans le désordre

pierho17 ↑ 903.29 GB ↓ 571.57 GB Ratio: 1,58

merci altano pour cet episode en divx

MaggieSimpson Echange de bons procédés... ↑ 645.7 GB ↓ 240.83 GB Ratio: 2,68

Bonjour altano ce format passe sur mon lecteur merci beaucoup

Télécharger "Alien.Theory.2013.S06.EP02.Les.cranes.de.cristal.FRENCH" en illimité a une vitesse de 1000 kbps grïâce aux 14 Jours d'essai gratuit offerts par Usenet.nl!
 
Loading...