Axe Giant The Wrath of Paul Bunyan 2013 FANSUB VOSTFR WEBRiP XViD-LaTeam@TaMère URL Raccourcie

Télécharger "Axe Giant The Wrath of Paul Bunyan 2013 FANSUB VOSTFR WEBRiP XViD-LaTeam@TaMère" en illimité a une vitesse de 1000 kbps grïâce aux 14 Jours d'essai gratuit offerts par Usenet.nl!
(¯`·._.·[ Axe Giant The Wrath of Paul Bunyan 2013 FANSUB VOSTFR WEBRiP XViD ]·._.·´¯]







Titre original : Aucune information ...
Année de production : 2013
Réalisateur : Aucune information ...
Durée : 1H30
Acteurs : Joe Estevez, Dan Haggerty, Thomas Downe
Genre : Horreur
Date de sortie : N.C.
Pays de production : États-Unis

Bande annonce :





Axe Giant Wrath Paul Bunyan



Les jeunes adultes au camp d'entraînement d'une primo-délinquants découvrir la légende du bûcheron géant Paul Bunyan est réel, mais il est beaucoup plus horrible que ce qu'ils auraient pu imaginer.



Uploader : Phoenix10498
Qualité : DVDRip
Format : XviD MP3
Langue :
Sous-titre :
Nom de la Release : LaTeam@TaMère.

Nombre et taille des fichiers 700 Mo

Total du post : 700 Mo





Un bon film d'horreur. Langue audio anglaise au format MP3. Sous-titres en français. Enjoy guys.



↓↓↓ Axe Giant The Wrath of Paul Bunyan 2013 FANSUB VOSTFR WEBRiP XViD-LaTeam@TaMère ↓↓↓
 

www.usenet.nl

Seeders 5 Leechers 0 Téléchargements 466
 
Télécharger Dire merci! Signaler
Voir la liste des membres qui vous remercient
↑↑↑ Axe Giant The Wrath of Paul Bunyan 2013 FANSUB VOSTFR WEBRiP XViD-LaTeam@TaMère ↑↑↑

Informations

Nom Axe Giant The Wrath of Paul Bunyan 2013 FANSUB VOSTFR WEBRiP XViD-LaTeam@TaMère
Torrent Axe.Giant.The.Wrath.of.Paul.Bunyan.2013.FANSUB.VOSTFR.WEBRiP.XViD-LaTeam.TaMere.torrent
Catégorie Film
Taille totale 705.05 MB
Info Hash 5b20f847590385d0110b7f410fbd3549ee672cb9
Uploadé par Phoenix10498
Uploadé le 2013-10-04 17:04:23 (+00:00)
Visites 687
évaluation 4.1/5 (15 votes)

Liste des Fichiers

Path Size
Axe.Giant.The.Wrath.of.Paul.Bunyan.2013.FANSUB.VOSTFR.WEBRiP.XViD-LaTeam.TaMere/Axe.Giant.The.Wrath.of.Paul.Bunyan.2013.FANSUB.VOSTFR.WEBRiP.XViD-LaTeam.TaMere.avi 705.04 MB
Axe.Giant.The.Wrath.of.Paul.Bunyan.2013.FANSUB.VOSTFR.WEBRiP.XViD-LaTeam.TaMere/Axe.Giant.The.Wrath.of.Paul.Bunyan.2013.FANSUB.VOSTFR.WEBRiP.XViD-LaTeam.TaMere.nfo 2.8 KB

Voir le NFO

General
Complete name                            : Axe.Giant.The.Wrath.of.Paul.Bunyan.2013.FANSUB.VOSTFR.WEBRiP.XViD-LaTeam.TaMere.avi
Format                                   : AVI
Format/Info                              : Audio Video Interleave
File size                                : 705 MiB
Duration                                 : 1h 30mn
Overall bit rate                         : 1 095 Kbps
Writing application                      : VirtualDubMod 1.5.10.2 (build 2542/release)
Writing library                          : VirtualDubMod build 2542/release

Video
ID                                       : 0
Format                                   : MPEG-4 Visual
Format profile                           : Advanced Simple@L5
Format settings, BVOP                    : 1
Format settings, QPel                    : No
Format settings, GMC                     : No warppoints
Format settings, Matrix                  : Default (H.263)
Muxing mode                              : Packed bitstream
Codec ID                                 : XVID
Codec ID/Hint                            : XviD
Duration                                 : 1h 30mn
Bit rate                                 : 957 Kbps
Width                                    : 656 pixels
Height                                   : 368 pixels
Display aspect ratio                     : 16:9
Frame rate                               : 23.976 fps
Color space                              : YUV
Chroma subsampling                       : 4:2:0
Bit depth                                : 8 bits
Scan type                                : Progressive
Compression mode                         : Lossy
Bits/(Pixel*Frame)                       : 0.165
Stream size                              : 616 MiB (87%)
Writing library                          : XviD 64

Audio
ID                                       : 1
Format                                   : MPEG Audio
Format version                           : Version 1
Format profile                           : Layer 3
Mode                                     : Joint stereo
Codec ID                                 : 55
Codec ID/Hint                            : MP3
Duration                                 : 1h 30mn
Bit rate mode                            : Constant
Bit rate                                 : 128 Kbps
Channel(s)                               : 2 channels
Sampling rate                            : 48.0 KHz
Compression mode                         : Lossy
Stream size                              : 82.4 MiB (12%)
Alignment                                : Split accross interleaves
Interleave, duration                     : 42 ms (1.00 video frame)
Interleave, preload duration             : 500 ms
Writing library                          : LAME3.99r
Encoding settings                        : -m j -V 4 -q 2 -lowpass 17 -b 128


TÉLÉCHARGER "Axe Giant The Wrath of Paul Bunyan 2013 FANSUB VOSTFR WEBRiP XViD-LaTeam@TaMère" 20x PLUS VITE AVEC USENET
Anonyme&Rapide – 14 jours gratuits

Ajouter un commentaire

ozidakozida ↑ 285.19 GB ↓ 343.41 GB Ratio: 0,83

@artosted Bonjour Bonjour les hirondelles y'a d'l'abus ...

artosted ↑ 40.73 GB ↓ 19.68 GB Ratio: 2,06

possible de l'avoir en Fr

Phoenix10498 Fan des Pinguins. ↑ 232.9 TB ↓ 6.15 TB Ratio: 37,87

bah ouais ca sent le nanard bien frais

tneoced

j’achète comme dirait l'autre^^

levieux ↑ 8.09 TB ↓ 3.72 TB Ratio: 2,17

allez pour se marrer.....vais le regarder....

Télécharger "Axe Giant The Wrath of Paul Bunyan 2013 FANSUB VOSTFR WEBRiP XViD-LaTeam@TaMère" en illimité a une vitesse de 1000 kbps grïâce aux 14 Jours d'essai gratuit offerts par Usenet.nl!
 
Loading...