Bunohan 2011 STV FRENCH 720p BluRay x264-AiRLiNE URL Raccourcie

Télécharger "Bunohan 2011 STV FRENCH 720p BluRay x264-AiRLiNE " en illimité a une vitesse de 1000 kbps grïâce aux 14 Jours d'essai gratuit offerts par Usenet.nl!

(¯`·._.·[   Bunohan 2011 FRENCH Bluray 720p DTS   ]·._.·´¯]







Origine du film : Malaisien
Distributeur : Aucune information ...
Réalisateur : Dain Said
Acteurs : Zahiril Adzim, Faizal Hussein, Wan Hanafisu
Genre : Action, Drame
Durée : 1h 37 min
Date de sortie : Aucune information ...
Année de production : 2011
Critiques spectateurs :  2,7  
Critiques presse :   

Bande annonce :







Un kickboxer, un assassin et un businessman. Trois frères qui devront affronter la trahison, la corruption et la violence dans les paysages hostiles de la Malaisie.
Le plus jeune, Adil, champion impitoyable, est en fuite après un combat à mort illégal, alors que son aîné Ilham, tueur à gages, pourchasse sa prochaine cible. C’est le troisième frère, Bakar, homme d’affaires sans scrupule, qui va les réunir à Bunohan, pour un affrontement où la haine, le meurtre et la violence seront aussi au rendez-vous…




Uploader : Phoenix10498
Qualité : Blu-Ray 720p
Format : MKV
Langue :
Sous-titre :
Nom de la Release : AiRLiNE.

Nombre et taille des fichiers : 1 X 3.28 Go

Total du post : 3.28 Go




Un bon film d'action. Langue audio française  au format DTS. Sous-titres en français. Qualité vidéo de 720p. Enjoy guys.




Générée le :18-11-2012 à 22:05



↓↓↓ Bunohan 2011 STV FRENCH 720p BluRay x264-AiRLiNE  ↓↓↓
 

www.usenet.nl

Seeders 0 Leechers 0 Téléchargements 212
 
Télécharger Dire merci! Signaler
Voir la liste des membres qui vous remercient
↑↑↑ Bunohan 2011 STV FRENCH 720p BluRay x264-AiRLiNE  ↑↑↑

Informations

Nom Bunohan 2011 STV FRENCH 720p BluRay x264-AiRLiNE
Torrent Bunohan.2011.STV.FRENCH.720p.BluRay.x264-AiRLiNE.torrent
Catégorie Film
Taille totale 3.28 GB
Info Hash d1217b724b77430748b390fd32b94dfa6f02d845
Uploadé par Phoenix10498
Uploadé le 2012-11-18 21:21:10 (+00:00)
Visites 207
évaluation 5/5 (7 votes)

Liste des Fichiers

Path Size
Bunohan.2011.STV.FRENCH.720p.BluRay.x264-AiRLiNE/Bunohan.2011.STV.FRENCH.720p.BluRay.x264-AiRLiNE.mkv 3.28 GB
Bunohan.2011.STV.FRENCH.720p.BluRay.x264-AiRLiNE/Bunohan.2011.STV.FRENCH.720p.BluRay.x264-AiRLiNE.nfo 5.08 KB

Voir le NFO

General
Unique ID                                : 190343443420439567322105039328382264316 (0x8F32D05145C3C43C830767FD86D3A3FC)
Complete name                            : Bunohan.2011.STV.FRENCH.720p.BluRay x264-AiRLiNE.mkv
Format                                   : Matroska
Format version                           : Version 2
File size                                : 3.28 GiB
Duration                                 : 1h 38mn
Overall bit rate                         : 4 774 Kbps
Encoded date                             : UTC 2012-10-24 01:26:34
Writing application                      : mkvmerge v5.8.0 ('No Sleep / Pillow') built on Sep  2 2012 15:37:04
Writing library                          : libebml v1.2.3 + libmatroska v1.3.0

Video
ID                                       : 1
Format                                   : AVC
Format/Info                              : Advanced Video Codec
Format profile                           : High@L4.1
Format settings, CABAC                   : Yes
Format settings, ReFrames                : 5 frames
Muxing mode                              : Header stripping
Codec ID                                 : V_MPEG4/ISO/AVC
Duration                                 : 1h 38mn
Bit rate                                 : 4 007 Kbps
Width                                    : 1 280 pixels
Height                                   : 688 pixels
Display aspect ratio                     : 1.85:1
Frame rate mode                          : Constant
Frame rate                               : 23.976 fps
Color space                              : YUV
Chroma subsampling                       : 4:2:0
Bit depth                                : 8 bits
Scan type                                : Progressive
Bits/(Pixel*Frame)                       : 0.190
Stream size                              : 2.69 GiB (82%)
Title                                    : Bunohan - 720p
Writing library                          : x264 core 128 r2216 198a7ea
Encoding settings                        : cabac=1 / ref=5 / deblock=1:0:0 / analyse=0x3:0x113 / me=umh / subme=7 / psy=1 / psy_rd=1.00:0.00 / mixed_ref=1 / me_range=16 / chroma_me=1 / trellis=1 / 8x8dct=1 / cqm=0 / deadzone=21,11 / fast_pskip=0 / chroma_qp_offset=-2 / threads=4 / lookahead_threads=1 / sliced_threads=0 / nr=0 / decimate=1 / interlaced=0 / bluray_compat=0 / constrained_intra=0 / bframes=3 / b_pyramid=2 / b_adapt=1 / b_bias=0 / direct=1 / weightb=1 / open_gop=0 / weightp=2 / keyint=240 / keyint_min=22 / scenecut=40 / intra_refresh=0 / rc_lookahead=30 / rc=2pass / mbtree=1 / bitrate=4007 / ratetol=1.0 / qcomp=0.60 / qpmin=0 / qpmax=69 / qpstep=4 / cplxblur=20.0 / qblur=0.5 / ip_ratio=1.40 / aq=1:1.00
Default                                  : Yes
Forced                                   : No

Audio
ID                                       : 2
Format                                   : DTS
Format/Info                              : Digital Theater Systems
Mode                                     : 16
Format settings, Endianness              : Big
Muxing mode                              : Header stripping
Codec ID                                 : A_DTS
Duration                                 : 1h 38mn
Bit rate mode                            : Constant
Bit rate                                 : 768 Kbps
Channel(s)                               : 6 channels
Channel positions                        : Front: L C R, Side: L R, LFE
Sampling rate                            : 48.0 KHz
Bit depth                                : 24 bits
Compression mode                         : Lossy
Stream size                              : 540 MiB (16%)
Title                                    : FR-DTS 1510kbps
Language                                 : French
Default                                  : Yes
Forced                                   : No

Text #1
ID                                       : 3
Format                                   : UTF-8
Codec ID                                 : S_TEXT/UTF8
Codec ID/Info                            : UTF-8 Plain Text
Default                                  : Yes
Forced                                   : No

Text #2
ID                                       : 4
Format                                   : UTF-8
Codec ID                                 : S_TEXT/UTF8
Codec ID/Info                            : UTF-8 Plain Text
Default                                  : No
Forced                                   : No

Menu
00:00:00.000                             : en:00:00:00.000
00:08:39.227                             : en:00:08:39.227
00:14:24.697                             : en:00:14:24.697
00:26:14.156                             : en:00:26:14.156
00:32:10.554                             : en:00:32:10.554
00:39:51.764                             : en:00:39:51.764
00:50:47.503                             : en:00:50:47.503
00:58:24.835                             : en:00:58:24.835
01:07:44.978                             : en:01:07:44.978
01:13:33.618                             : en:01:13:33.618
01:22:43.667                             : en:01:22:43.667
01:31:15.387                             : en:01:31:15.387


TÉLÉCHARGER "Bunohan 2011 STV FRENCH 720p BluRay x264-AiRLiNE " 20x PLUS VITE AVEC USENET
Anonyme&Rapide – 14 jours gratuits

Ajouter un commentaire

Télécharger "Bunohan 2011 STV FRENCH 720p BluRay x264-AiRLiNE " en illimité a une vitesse de 1000 kbps grïâce aux 14 Jours d'essai gratuit offerts par Usenet.nl!
 
Loading...