Bye Bye 2012 - 2012-12-31 - VFQ HDTV XviD - {bLinKkY} URL Raccourcie

Télécharger "Bye Bye 2012 - 2012-12-31 - VFQ HDTV XviD - {bLinKkY}" en illimité a une vitesse de 1000 kbps grïâce aux 14 Jours d'essai gratuit offerts par Usenet.nl!






Bye Bye 2012

Lien : http://www.radio-canada.ca/emissions/bye_bye/2012/



La revue de l’actualité culturelle, politique et sociale de l’année 2012 entièrement composée de sketches et de clips musicaux qui relèvent de la fiction, scénarisés et interprétés par une équipe de comédiens qui se partagent la totalité des rôles.











Comédiens : Véronique Cloutier, Louis Morissette, Hélène Bourgeois Leclerc, Joël Legendre et Michel Courtemanche
Auteurs : Louis Morissette, Benoit Pelletier, Jean-François Léger, Pascal Bariault et Louis Tremblay
Réalisateurs : Pierre-Luc Gosselin et Christian Laurence
Genre : Humour
Origine : Québécoise
Diffuseur : Radio-Canada
Année d'origine : 2012




Source : HDTV OTA
Format : Avi
Codec : XviD
Langue : / (VFQ)
Sous-titres : Aucun

Nombre de fichiers : 1

Frame/s : 29.970 fps
Résolution : 624 x 352 pixels
Bitrate video : 1000 kbps

Codec audio : MP3
Bitrate audio : 128 kbps
Nb canaux audio : 2

Taille total du post: 465 MiB




↓↓↓ Bye Bye 2012 - 2012-12-31 - VFQ HDTV XviD - {bLinKkY} ↓↓↓
 

www.usenet.nl

Seeders 5 Leechers 0 Téléchargements 431
 
Télécharger Dire merci! Signaler
Voir la liste des membres qui vous remercient
↑↑↑ Bye Bye 2012 - 2012-12-31 - VFQ HDTV XviD - {bLinKkY} ↑↑↑

Informations

Nom Bye Bye 2012 - 2012-12-31 - VFQ HDTV XviD - {bLinKkY}
Torrent Bye Bye 2012 - 2012-12-31 - VFQ HDTV XviD - {bLinKkY}.torrent
Catégorie Série TV
Taille totale 465.4 MB
Info Hash 5a74f7cd33afbf46463229b03a78efe7218afd08
Uploadé par blinkky
Uploadé le 2013-01-02 13:55:58 (+00:00)
Visites 523
évaluation 4.9/5 (8 votes)

Liste des Fichiers

Path Size
Bye Bye 2012 - 2012-12-31 - VFQ HDTV XviD - {bLinKkY}.avi 465.4 MB

Voir le NFO

Rip by {bLinKkY}


Bye Bye 2012 - 2012-12-31 - VFQ HDTV XviD - {bLinKkY}.avi

Format                                   : AVI
Format/Info                              : Audio Video Interleave
File size                                : 465 MiB
Duration                                 : 1h 21mn
Overall bit rate                         : 794 Kbps

Video
ID                                       : 0
Format                                   : MPEG-4 Visual
Format profile                           : Advanced Simple@L5
Format settings, BVOP                    : 2
Format settings, QPel                    : No
Format settings, GMC                     : No warppoints
Format settings, Matrix                  : Default (H.263)
Codec ID                                 : XVID
Codec ID/Hint                            : XviD
Duration                                 : 56mn 59s
Bit rate                                 : 1 000 Kbps
Width                                    : 624 pixels
Height                                   : 352 pixels
Display aspect ratio                     : 16:9
Frame rate                               : 29.970 fps
Color space                              : YUV
Chroma subsampling                       : 4:2:0
Bit depth                                : 8 bits
Scan type                                : Progressive
Compression mode                         : Lossy
Bits/(Pixel*Frame)                       : 0.152
Stream size                              : 407 MiB (88%)
Writing library                          : XviD 64

Audio
ID                                       : 1
Format                                   : MPEG Audio
Format version                           : Version 1
Format profile                           : Layer 3
Codec ID                                 : 55
Codec ID/Hint                            : MP3
Duration                                 : 1h 21mn
Source duration                          : 56mn 59s
Bit rate mode                            : Constant
Bit rate                                 : 128 Kbps
Channel(s)                               : 2 channels
Sampling rate                            : 48.0 KHz
Compression mode                         : Lossy
Stream size                              : 52.2 MiB (11%)
Alignment                                : Split accross interleaves
Interleave, duration                     : 24 ms (0.72 video frame)


Ajouter un commentaire

blinkky ↑ 8.44 TB ↓ 485.26 GB Ratio: 17,80

"sti de looser qui renomme des relese loseer"

Hey buddy, se sont mes releases...... comme toutes les autres release des dernières années nommés blinkky que tu trouveras sur le web!

saxie294 ↑ 56.74 GB ↓ 44.76 GB Ratio: 1,26

tres bon merci

crazyska ↑ 1.56 TB ↓ 1.15 TB Ratio: 1,35

gabriel nadeau style... tellement mon boutte préféré hahahaha

Seahunter

  Notre force ici au Québec: Le sens de l'humeur!!!    Beau travail merci

Flanie ↑ 752.53 GB ↓ 863.27 GB Ratio: 0,87

Super qualité! Merci!

niaisepas ↑ 426.05 GB ↓ 453.43 GB Ratio: 0,93

MERCI, image et son parfait. Excellent ce bye bye

Télécharger "Bye Bye 2012 - 2012-12-31 - VFQ HDTV XviD - {bLinKkY}" en illimité a une vitesse de 1000 kbps grïâce aux 14 Jours d'essai gratuit offerts par Usenet.nl!
 
Loading...