Coupe du Monde 2006 - Quart de finale - France vs Bresil.avi URL Raccourcie

Télécharger "Coupe du Monde 2006 - Quart de finale - France vs Bresil.avi" en illimité a une vitesse de 1000 kbps grïâce aux 14 Jours d'essai gratuit offerts par Usenet.nl!

[  France vs Bresil Q/finale CDM 2006 Germany   ]



Un beau match que nous a offert l'équipe de france avec un zizou merveilleux commenter par: THIERRY GILARDI






Réalisateur(s) : FIFA WORLD CUP
Genre : Sport évenement
Durée : 2h05
Date de sortie : 2006





Le 1 juillet 2006,
Francfort (Stade Commerzbank-Arena )
1/4 finale coupe du monde 2006
FRANCE bat BRESIL 1-0
48000 Spectateurs. Arbitre : M. Medina Cantalejo (Espagne). But : Henry (57'). Avertissements : aux Francais Sagnol (74'), Saha (87'), Thuram (88') ; aux Brésiliens Cafu (25'), Juan (45'), Ronaldo (45'+2), Lucio (75').

FRANCE : Barthez - Sagnol, Thuram, Gallas, Abidal - Makelele, Viera, Zidane, Ribery (Govou,77')- Henry (Saha,86'), Malouda (Wiltord,81').

BRESIL : Brésil : Dida - Cafu (Cicinho,76'), Juan, Lucio, Roberto Carlos - Juninho (Adriano,63'), Gilberto Silva, Zé Roberto - Kaka (Robinho,79') , Ronaldo, Ronaldinho .





Qualité : [i]TVrip

Langue : Français
Découper avec : Aucun
Nombre de fichiers : 1 Fichiers
Taille totale : 1360 Mo





↓↓↓ Coupe du Monde 2006 - Quart de finale - France vs Bresil.avi ↓↓↓
 

www.usenet.nl

Seeders 7 Leechers 0 Téléchargements 931
 
Télécharger Dire merci! Signaler
Voir la liste des membres qui vous remercient
↑↑↑ Coupe du Monde 2006 - Quart de finale - France vs Bresil.avi ↑↑↑

Informations

Nom Coupe du Monde 2006 - Quart de finale - France vs Bresil.avi
Torrent Coupe du Monde 2006 - Quart de finale - France vs Bresil.avi.torrent
Catégorie Sport
Taille totale 1.36 GB
Info Hash 481b5ebc1baaa2a5d6a97ae5c69da94fd77b8846
Uploadé par nadou2011
Uploadé le 2012-06-09 03:09:25 (+00:00)
Visites 1371
évaluation 5/5 (11 votes)

Liste des Fichiers

Path Size
Coupe du Monde 2006 - Quart de finale - France vs Bresil.avi 1.36 GB

Voir le NFO

General
Complete name                    : Coupe du Monde 2006 - Quart de finale - France vs Bresil.avi
Format                           : AVI
Format/Info                      : Audio Video Interleave
File size                        : 1.36 GiB
Duration                         : 2h 5mn
Overall bit rate                 : 1 558 Kbps
Writing library                  : VirtualDub build 23538/release

Video
ID                               : 0
Format                           : MPEG-4 Visual
Format settings, BVOP            : 1
Format settings, QPel            : No
Format settings, GMC             : No warppoints
Format settings, Matrix          : Default (H.263)
Muxing mode                      : Packed bitstream
Codec ID                         : DX50
Codec ID/Hint                    : DivX 5
Duration                         : 2h 5mn
Bit rate                         : 1 425 Kbps
Width                            : 720 pixels
Height                           : 576 pixels
Display aspect ratio             : 5:4
Frame rate                       : 25.000 fps
Standard                         : PAL
Color space                      : YUV
Chroma subsampling               : 4:2:0
Bit depth                        : 8 bits
Scan type                        : Progressive
Compression mode                 : Lossy
Bits/(Pixel*Frame)               : 0.137
Stream size                      : 1.25 GiB (91%)
Writing library                  : DivX 5.2.1 (DrDivX 106) (UTC 2004-09-08)

Audio
ID                               : 1
Format                           : MPEG Audio
Format version                   : Version 1
Format profile                   : Layer 3
Mode                             : Joint stereo
Mode extension                   : MS Stereo
Codec ID                         : 55
Codec ID/Hint                    : MP3
Duration                         : 2h 5mn
Bit rate mode                    : Constant
Bit rate                         : 128 Kbps
Channel(s)                       : 2 channels
Sampling rate                    : 44.1 KHz
Compression mode                 : Lossy
Stream size                      : 115 MiB (8%)
Alignment                        : Split accross interleaves
Interleave, duration             : 9996 ms (249.90 video frames)
Interleave, preload duration     : 500 ms

TÉLÉCHARGER "Coupe du Monde 2006 - Quart de finale - France vs Bresil.avi" 20x PLUS VITE AVEC USENET
Anonyme&Rapide – 14 jours gratuits

Ajouter un commentaire

SwissK1201 ↑ 1.1 TB ↓ 1.06 TB Ratio: 1,03

quel classe...merci !!

oran034 ↑ 34.5 GB ↓ 46.06 GB Ratio: 0,74

merci zidaaaaaaane

zembla ↑ 210.63 GB ↓ 110.51 GB Ratio: 1,90

Revoir, revoir, et revoir ce joueur dans ces oeuvres, je m'en lasserais jamais

azertygfds ↑ 406.42 GB ↓ 376.51 GB Ratio: 1,07

Quel match!!!!
ZIDANE ZIDANE ZIDANE ZIDANE.....
Sans être vulgaire Zidane m'a fait jouir.
MERCI MERCI MERCI.... pour ce partage

jeanpierretylian nice family ↑ 431.01 GB ↓ 464.99 GB Ratio: 0,92

ha zidane reviens vite en equipe de france donne ton experience

mohborara13 ↑ 51.43 GB ↓ 29.01 GB Ratio: 1,77

graaaaaaaaaaaaaaaaaaaann merciiiiiiiiiiiiiiii

ofasia62 ↑ 5.25 TB ↓ 4.08 TB Ratio: 1,28

Salut , merci pour ton post déja est ce que t'aurais la finale France Italie par hasard?

Merci

nadou2011 ↑ 10.88 TB ↓ 1.12 TB Ratio: 9,73

C bon pour le match Espagne VS France disponible

(Invalid img)

nadou2011 ↑ 10.88 TB ↓ 1.12 TB Ratio: 9,73

je ferai mon possible "melimelo" c avec plaisir a bientôt

(Invalid img)

melimelo95 ↑ 362.58 GB ↓ 459.76 GB Ratio: 0,78

j'aimerai juste si c'est possible, avoir france vs espagne

melimelo95 ↑ 362.58 GB ↓ 459.76 GB Ratio: 0,78

merci beaucoup quel match

jean31100 dealer de l'east. ↑ 167.57 GB ↓ 200.13 GB Ratio: 0,83

heu cornevaux, c'est loin d'être la meilleure coupe. Prend déja l'euro 2000, et même la coupe d'europe en espagne avec platini. Aprés c'est sur que aprés les poules ils étaient vraiment trés joli a regarder.

samaero

ohh que du bon!! je l'attendais depuis...2006 en fait lol! j'arrivais pas à le trouver, du coups j'ai abandonné..
merci beaucoup!!

Télécharger "Coupe du Monde 2006 - Quart de finale - France vs Bresil.avi" en illimité a une vitesse de 1000 kbps grïâce aux 14 Jours d'essai gratuit offerts par Usenet.nl!
 
Loading...