Death Valley Season 1 VOSTFR URL Raccourcie

Télécharger "Death Valley Season 1 VOSTFR" en illimité a une vitesse de 1000 kbps grïâce aux 14 Jours d'essai gratuit offerts par Usenet.nl!
(¯`·._.·[   Death Valley   ]·._.·´¯)





Origine de la serie : :
Titre original : Death Valley
Saison :
Episodes :
Top Série : Aucune Information ...
Statut : Série en production- 1 saison, 12 épisodes
Réalisateur : Aucune Information ...
Acteurs : Bryan Callen, Charlie Sanders, Bryce Johnson  
Genre : Comédie
Durée :
Date de diffusion : : Aucune Information ...



Les exploits d'une unité des forces spéciales de la police de Los Angeles, fondée en 2009 lorsque la vallée de San Fernando a été envahie par des zombies, des vampires et des loups-garous. Alors que les scientifiques cherchent encore une réponse à la cause de ce chaos, les membres de cette équipe d'intervention sont chargés d'éradiquer les monstres, ou du moins les contenir dans la vallée.


</div>



Hébergeur :
Qualité : TVrip
Format : DivX
Langue : Anglais
Sous-titre : Fr
Découper avec :
Nombre de fichiers : 12 Fichiers
Taille des fichiers : 175 Mo
Taille totale : 2060 Mo




Saison 1 complète VOSTFR


Mot de pass : Aucun

Total du post: 2060 Mo



↓↓↓ Death Valley Season 1 VOSTFR ↓↓↓
 

www.usenet.nl

Seeders 6 Leechers 1 Téléchargements 3690
 
Télécharger Dire merci! Signaler
Voir la liste des membres qui vous remercient
↑↑↑ Death Valley Season 1 VOSTFR ↑↑↑

Informations

Nom Death Valley Season 1 VOSTFR
Torrent Death Valley Season 1 VOSTFR.torrent
Catégorie Série TV
Taille totale 2.06 GB
Info Hash 441fdd2f174104d9bd424d3ddab35ade0e867019
Uploadé par IZepHiRI
Uploadé le 2011-12-01 23:44:52 (+00:00)
Visites 4956
évaluation 4.6/5 (30 votes)

Liste des Fichiers

Path Size
Death Valley Season 1 VOSTFR/Death.Valley.S01E09.FASTSUB.VOSTFR.HDTV.XviD-MiND.avi 180.73 MB
Death Valley Season 1 VOSTFR/Death.Valley.S01E06.VOSTFR.avi 180.26 MB
Death Valley Season 1 VOSTFR/Death.Valley.S01E03.VOSTFR.avi 176 MB
Death Valley Season 1 VOSTFR/Death.Valley.S01E07.VOSTFR.avi 175.38 MB
Death Valley Season 1 VOSTFR/Death.Valley.S01E12.VOSTFR.avi 175.36 MB
Death Valley Season 1 VOSTFR/Death.Valley.S01E08.FASTSUB.VOSTFR.HDTV.XviD-MiND.avi 175.2 MB
Death Valley Season 1 VOSTFR/Death.Valley.S01E01.VOSTFR.avi 175.12 MB
Death Valley Season 1 VOSTFR/Death.Valley.S01E02.VOSTFR.avi 175.05 MB
Death Valley Season 1 VOSTFR/Death.Valley.S01E05.VOSTFR.avi 174.74 MB
Death Valley Season 1 VOSTFR/Death.Valley.S01E11.FASTSUB.VOSTFR.HDTV.XviD-MiND.avi 174.69 MB
Death Valley Season 1 VOSTFR/Death.Valley.S01E04.VOSTFR.avi 174.51 MB
Death Valley Season 1 VOSTFR/Death.Valley.S01E10.FASTSUB.VOSTFR.HDTV.XviD-ROKS.avi 173.94 MB

Voir le NFO

General
Complete name                    :Death.Valley.S01E01.VOSTFR.avi
Format                           : AVI
Format/Info                      : Audio Video Interleave
File size                        : 175 MiB
Duration                         : 21mn 10s
Overall bit rate mode            : Variable
Overall bit rate                 : 1 157 Kbps
Movie name                       : Death.Valley.S01E01.FASTSUB.VOSTFR.HDTV.XviD-MiND.avi
Genre                            : VOSTFR by MiND
Writing application              : MEncoder git-ab94fc6-4.4.3
Writing library                  : MPlayer
Copyright                        : MiND Project
Comment                          : MiND Project

Video
ID                               : 0
Format                           : MPEG-4 Visual
Format profile                   : Advanced Simple@L5
Format settings, BVOP            : 2
Format settings, QPel            : No
Format settings, GMC             : No warppoints
Format settings, Matrix          : Default (H.263)
Codec ID                         : XVID
Codec ID/Hint                    : XviD
Duration                         : 21mn 9s
Bit rate                         : 989 Kbps
Width                            : 624 pixels
Height                           : 352 pixels
Display aspect ratio             : 16:9
Frame rate                       : 23.976 fps
Color space                      : YUV
Chroma subsampling               : 4:2:0
Bit depth                        : 8 bits
Scan type                        : Progressive
Compression mode                 : Lossy
Bits/(Pixel*Frame)               : 0.188
Stream size                      : 150 MiB (86%)
Writing library                  : XviD 1.2.1 (UTC 2008-12-04)

Audio
ID                               : 1
Format                           : MPEG Audio
Format version                   : Version 1
Format profile                   : Layer 3
Codec ID                         : 55
Codec ID/Hint                    : MP3
Duration                         : 21mn 10s
Bit rate mode                    : Variable
Bit rate                         : 155 Kbps
Channel(s)                       : 2 channels
Sampling rate                    : 48.0 KHz
Compression mode                 : Lossy
Stream size                      : 23.4 MiB (13%)
Alignment                        : Aligned on interleaves
Interleave, duration             : 24 ms (0.58 video frame)
Interleave, preload duration     : 443 ms

General
Complete name                    : Death.Valley.S01E02.VOSTFR.avi
Format                           : AVI
Format/Info                      : Audio Video Interleave
File size                        : 175 MiB
Duration                         : 21mn 19s
Overall bit rate mode            : Variable
Overall bit rate                 : 1 148 Kbps
Writing application              : VirtualDubMod 1.5.10.2 (build 2542/release)
Writing library                  : VirtualDubMod build 2542/release

Video
ID                               : 0
Format                           : MPEG-4 Visual
Format profile                   : Advanced Simple@L5
Format settings, BVOP            : 1
Format settings, QPel            : No
Format settings, GMC             : No warppoints
Format settings, Matrix          : Default (H.263)
Muxing mode                      : Packed bitstream
Codec ID                         : XVID
Codec ID/Hint                    : XviD
Duration                         : 21mn 19s
Bit rate                         : 973 Kbps
Width                            : 624 pixels
Height                           : 352 pixels
Display aspect ratio             : 16:9
Frame rate                       : 23.976 fps
Color space                      : YUV
Chroma subsampling               : 4:2:0
Bit depth                        : 8 bits
Scan type                        : Progressive
Compression mode                 : Lossy
Bits/(Pixel*Frame)               : 0.185
Stream size                      : 148 MiB (85%)
Writing library                  : XviD 1.2.1 (UTC 2008-12-04)

Audio
ID                               : 1
Format                           : MPEG Audio
Format version                   : Version 1
Format profile                   : Layer 3
Mode                             : Joint stereo
Mode extension                   : MS Stereo
Codec ID                         : 55
Codec ID/Hint                    : MP3
Duration                         : 21mn 19s
Bit rate mode                    : Variable
Bit rate                         : 160 Kbps
Channel(s)                       : 2 channels
Sampling rate                    : 48.0 KHz
Compression mode                 : Lossy
Stream size                      : 24.6 MiB (14%)
Alignment                        : Aligned on interleaves
Interleave, duration             : 24 ms (0.58 video frame)
Interleave, preload duration     : 503 ms
Writing library                  : LAME3.90.
Encoding settings                : -m j -V 4 -q 2 -lowpass 18 --abr 160

General
Complete name                    : Death.Valley.S01E03.VOSTFR.avi
Format                           : AVI
Format/Info                      : Audio Video Interleave
File size                        : 176 MiB
Duration                         : 20mn 48s
Overall bit rate mode            : Variable
Overall bit rate                 : 1 182 Kbps
Writing application              : MEncoder Sherpya-MT-SVN-r32848-4.2.5
Writing library                  : MPlayer

Video
ID                               : 0
Format                           : MPEG-4 Visual
Format profile                   : Advanced Simple@L5
Format settings, BVOP            : 2
Format settings, QPel            : No
Format settings, GMC             : No warppoints
Format settings, Matrix          : Default (H.263)
Codec ID                         : XVID
Codec ID/Hint                    : XviD
Duration                         : 20mn 48s
Bit rate                         : 1 040 Kbps
Width                            : 624 pixels
Height                           : 352 pixels
Display aspect ratio             : 16:9
Frame rate                       : 23.976 fps
Color space                      : YUV
Chroma subsampling               : 4:2:0
Bit depth                        : 8 bits
Scan type                        : Progressive
Compression mode                 : Lossy
Bits/(Pixel*Frame)               : 0.197
Stream size                      : 155 MiB (88%)
Writing library                  : XviD 1.2.1 (UTC 2008-12-04)

Audio
ID                               : 1
Format                           : MPEG Audio
Format version                   : Version 1
Format profile                   : Layer 3
Mode                             : Joint stereo
Mode extension                   : MS Stereo
Codec ID                         : 55
Codec ID/Hint                    : MP3
Duration                         : 20mn 48s
Bit rate mode                    : Variable
Bit rate                         : 128 Kbps
Channel(s)                       : 2 channels
Sampling rate                    : 48.0 KHz
Compression mode                 : Lossy
Stream size                      : 19.3 MiB (11%)
Alignment                        : Aligned on interleaves
Interleave, duration             : 24 ms (0.58 video frame)
Interleave, preload duration     : 491 ms
Writing library                  : LAME3.92 
Encoding settings                : -m j -V 4 -q 2 -lowpass 17.5 --abr 128

General
Complete name                    : Death.Valley.S01E04.VOSTFR.avi
Format                           : AVI
Format/Info                      : Audio Video Interleave
File size                        : 175 MiB
Duration                         : 20mn 11s
Overall bit rate mode            : Variable
Overall bit rate                 : 1 208 Kbps
Writing application              : MEncoder VERSION
Writing library                  : MPlayer

Video
ID                               : 0
Format                           : MPEG-4 Visual
Format profile                   : Advanced Simple@L5
Format settings, BVOP            : 2
Format settings, QPel            : No
Format settings, GMC             : No warppoints
Format settings, Matrix          : Default (H.263)
Codec ID                         : XVID
Codec ID/Hint                    : XviD
Duration                         : 20mn 11s
Bit rate                         : 1 039 Kbps
Width                            : 624 pixels
Height                           : 352 pixels
Display aspect ratio             : 16:9
Frame rate                       : 23.976 fps
Color space                      : YUV
Chroma subsampling               : 4:2:0
Bit depth                        : 8 bits
Scan type                        : Progressive
Compression mode                 : Lossy
Bits/(Pixel*Frame)               : 0.197
Stream size                      : 150 MiB (86%)
Writing library                  : XviD 71

Audio
ID                               : 1
Format                           : MPEG Audio
Format version                   : Version 1
Format profile                   : Layer 3
Codec ID                         : 55
Codec ID/Hint                    : MP3
Duration                         : 20mn 11s
Bit rate mode                    : Variable
Bit rate                         : 157 Kbps
Channel(s)                       : 2 channels
Sampling rate                    : 48.0 KHz
Compression mode                 : Lossy
Stream size                      : 22.6 MiB (13%)
Alignment                        : Aligned on interleaves
Interleave, duration             : 24 ms (0.58 video frame)
Interleave, preload duration     : 370 ms

General
Complete name                    : Death.Valley.S01E05.VOSTFR.avi
Format                           : AVI
Format/Info                      : Audio Video Interleave
File size                        : 175 MiB
Duration                         : 20mn 38s
Overall bit rate                 : 1 183 Kbps
Writing application              : VirtualDubMod 1.5.10.2 Fr | www.trad-fr.com ||  (build 2540/release)
Writing library                  : VirtualDubMod build 2540/release

Video
ID                               : 0
Format                           : MPEG-4 Visual
Format profile                   : Advanced Simple@L5
Format settings, BVOP            : 2
Format settings, QPel            : No
Format settings, GMC             : No warppoints
Format settings, Matrix          : Default (H.263)
Codec ID                         : XVID
Codec ID/Hint                    : XviD
Duration                         : 20mn 38s
Bit rate                         : 1 046 Kbps
Width                            : 624 pixels
Height                           : 352 pixels
Display aspect ratio             : 16:9
Frame rate                       : 23.976 fps
Color space                      : YUV
Chroma subsampling               : 4:2:0
Bit depth                        : 8 bits
Scan type                        : Progressive
Compression mode                 : Lossy
Bits/(Pixel*Frame)               : 0.199
Stream size                      : 154 MiB (88%)
Writing library                  : XviD 1.2.1 (UTC 2008-12-04)

Audio
ID                               : 1
Format                           : MPEG Audio
Format version                   : Version 1
Format profile                   : Layer 3
Codec ID                         : 55
Codec ID/Hint                    : MP3
Duration                         : 20mn 38s
Bit rate mode                    : Constant
Bit rate                         : 128 Kbps
Channel(s)                       : 2 channels
Sampling rate                    : 48.0 KHz
Compression mode                 : Lossy
Stream size                      : 18.9 MiB (11%)
Alignment                        : Aligned on interleaves
Interleave, duration             : 42 ms (1.00 video frame)
Interleave, preload duration     : 504 ms
Writing library                  : LAME3.98r
Encoding settings                : -m s -V 4 -q 2 -lowpass 17 -b 128

General
Complete name                    : Death.Valley.S01E06.VOSTFR.avi
Format                           : AVI
Format/Info                      : Audio Video Interleave
File size                        : 180 MiB
Duration                         : 20mn 42s
Overall bit rate mode            : Variable
Overall bit rate                 : 1 217 Kbps
Movie name                       : Death.Valley.S01E06.FASTSUB.VOSTFR.HDTV.XviD-MiND.avi
Genre                            : VOSTFR by MiND
Writing application              : MEncoder git-ab94fc6-4.4.3
Writing library                  : MPlayer
Copyright                        : MiND Project
Comment                          : MiND Project

Video
ID                               : 0
Format                           : MPEG-4 Visual
Format profile                   : Advanced Simple@L5
Format settings, BVOP            : 2
Format settings, QPel            : No
Format settings, GMC             : No warppoints
Format settings, Matrix          : Default (H.263)
Codec ID                         : XVID
Codec ID/Hint                    : XviD
Duration                         : 20mn 42s
Bit rate                         : 1 047 Kbps
Width                            : 624 pixels
Height                           : 352 pixels
Display aspect ratio             : 16:9
Frame rate                       : 23.976 fps
Color space                      : YUV
Chroma subsampling               : 4:2:0
Bit depth                        : 8 bits
Scan type                        : Progressive
Compression mode                 : Lossy
Bits/(Pixel*Frame)               : 0.199
Stream size                      : 155 MiB (86%)
Writing library                  : XviD 1.2.1 (UTC 2008-12-04)

Audio
ID                               : 1
Format                           : MPEG Audio
Format version                   : Version 1
Format profile                   : Layer 3
Codec ID                         : 55
Codec ID/Hint                    : MP3
Duration                         : 20mn 42s
Bit rate mode                    : Variable
Bit rate                         : 160 Kbps
Channel(s)                       : 2 channels
Sampling rate                    : 48.0 KHz
Compression mode                 : Lossy
Stream size                      : 23.3 MiB (13%)
Alignment                        : Aligned on interleaves
Interleave, duration             : 24 ms (0.58 video frame)
Interleave, preload duration     : 350 ms

General
Complete name                    : Death.Valley.S01E07.VOSTFR.avi
Format                           : AVI
Format/Info                      : Audio Video Interleave
File size                        : 175 MiB
Duration                         : 20mn 37s
Overall bit rate mode            : Variable
Overall bit rate                 : 1 189 Kbps
Movie name                       : Death.Valley.S01E07.FASTSUB.VOSTFR.HDTV.XviD-MiND.avi
Genre                            : VOSTFR by MiND
Writing application              : MEncoder git-ab94fc6-4.4.3
Writing library                  : MPlayer
Copyright                        : MiND Project
Comment                          : MiND Project

Video
ID                               : 0
Format                           : MPEG-4 Visual
Format profile                   : Advanced Simple@L5
Format settings, BVOP            : 2
Format settings, QPel            : No
Format settings, GMC             : No warppoints
Format settings, Matrix          : Default (H.263)
Codec ID                         : XVID
Codec ID/Hint                    : XviD
Duration                         : 20mn 37s
Bit rate                         : 1 043 Kbps
Width                            : 624 pixels
Height                           : 352 pixels
Display aspect ratio             : 16:9
Frame rate                       : 23.976 fps
Color space                      : YUV
Chroma subsampling               : 4:2:0
Bit depth                        : 8 bits
Scan type                        : Progressive
Compression mode                 : Lossy
Bits/(Pixel*Frame)               : 0.198
Stream size                      : 154 MiB (88%)
Writing library                  : XviD 1.2.1 (UTC 2008-12-04)

Audio
ID                               : 1
Format                           : MPEG Audio
Format version                   : Version 1
Format profile                   : Layer 3
Mode                             : Joint stereo
Mode extension                   : MS Stereo
Codec ID                         : 55
Codec ID/Hint                    : MP3
Duration                         : 20mn 37s
Bit rate mode                    : Variable
Bit rate                         : 133 Kbps
Channel(s)                       : 2 channels
Sampling rate                    : 48.0 KHz
Compression mode                 : Lossy
Stream size                      : 19.6 MiB (11%)
Alignment                        : Aligned on interleaves
Interleave, duration             : 24 ms (0.58 video frame)
Interleave, preload duration     : 581 ms
Writing library                  : LAME3.98.2

General
Complete name                    : Death.Valley.S01E08.FASTSUB.VOSTFR.HDTV.XviD-MiND.avi
Format                           : AVI
Format/Info                      : Audio Video Interleave
File size                        : 175 MiB
Duration                         : 21mn 26s
Overall bit rate mode            : Variable
Overall bit rate                 : 1 143 Kbps
Movie name                       : Death.Valley.S01E08.FASTSUB.VOSTFR.HDTV.XviD-MiND.avi
Genre                            : VOSTFR by MiND
Writing application              : MEncoder git-ab94fc6-4.4.3
Writing library                  : MPlayer
Copyright                        : MiND Project
Comment                          : MiND Project

Video
ID                               : 0
Format                           : MPEG-4 Visual
Format profile                   : Advanced Simple@L5
Format settings, BVOP            : 2
Format settings, QPel            : No
Format settings, GMC             : No warppoints
Format settings, Matrix          : Default (H.263)
Codec ID                         : XVID
Codec ID/Hint                    : XviD
Duration                         : 21mn 26s
Bit rate                         : 971 Kbps
Width                            : 624 pixels
Height                           : 352 pixels
Display aspect ratio             : 16:9
Frame rate                       : 23.976 fps
Color space                      : YUV
Chroma subsampling               : 4:2:0
Bit depth                        : 8 bits
Scan type                        : Progressive
Compression mode                 : Lossy
Bits/(Pixel*Frame)               : 0.184
Stream size                      : 149 MiB (85%)
Writing library                  : XviD 1.2.1 (UTC 2008-12-04)

Audio
ID                               : 1
Format                           : MPEG Audio
Format version                   : Version 1
Format profile                   : Layer 3
Codec ID                         : 55
Codec ID/Hint                    : MP3
Duration                         : 21mn 26s
Bit rate mode                    : Variable
Bit rate                         : 160 Kbps
Channel(s)                       : 2 channels
Sampling rate                    : 48.0 KHz
Compression mode                 : Lossy
Stream size                      : 24.3 MiB (14%)
Alignment                        : Aligned on interleaves
Interleave, duration             : 24 ms (0.58 video frame)
Interleave, preload duration     : 375 ms

General
Complete name                    : Death.Valley.S01E09.FASTSUB.VOSTFR.HDTV.XviD-MiND.avi
Format                           : AVI
Format/Info                      : Audio Video Interleave
File size                        : 181 MiB
Duration                         : 21mn 17s
Overall bit rate mode            : Variable
Overall bit rate                 : 1 187 Kbps
Movie name                       : Death.Valley.S01E09.FASTSUB.VOSTFR.HDTV.XviD-MiND.avi
Genre                            : VOSTFR by MiND
Writing application              : MEncoder git-ab94fc6-4.4.3
Writing library                  : MPlayer
Copyright                        : MiND Project
Comment                          : MiND Project

Video
ID                               : 0
Format                           : MPEG-4 Visual
Format profile                   : Advanced Simple@L5
Format settings, BVOP            : 2
Format settings, QPel            : No
Format settings, GMC             : No warppoints
Format settings, Matrix          : Default (H.263)
Codec ID                         : XVID
Codec ID/Hint                    : XviD
Duration                         : 21mn 17s
Bit rate                         : 1 016 Kbps
Width                            : 624 pixels
Height                           : 352 pixels
Display aspect ratio             : 16:9
Frame rate                       : 23.976 fps
Color space                      : YUV
Chroma subsampling               : 4:2:0
Bit depth                        : 8 bits
Scan type                        : Progressive
Compression mode                 : Lossy
Bits/(Pixel*Frame)               : 0.193
Stream size                      : 155 MiB (86%)
Writing library                  : XviD 1.2.1 (UTC 2008-12-04)

Audio
ID                               : 1
Format                           : MPEG Audio
Format version                   : Version 1
Format profile                   : Layer 3
Codec ID                         : 55
Codec ID/Hint                    : MP3
Duration                         : 21mn 17s
Bit rate mode                    : Variable
Bit rate                         : 160 Kbps
Channel(s)                       : 2 channels
Sampling rate                    : 48.0 KHz
Compression mode                 : Lossy
Stream size                      : 24.1 MiB (13%)
Alignment                        : Aligned on interleaves
Interleave, duration             : 24 ms (0.58 video frame)
Interleave, preload duration     : 442 ms

General
Complete name                    : Death.Valley.S01E10.FASTSUB.VOSTFR.HDTV.XviD-ROKS.avi
Format                           : AVI
Format/Info                      : Audio Video Interleave
File size                        : 174 MiB
Duration                         : 21mn 16s
Overall bit rate mode            : Variable
Overall bit rate                 : 1 143 Kbps
Writing application              : MEncoder VERSION
Writing library                  : MPlayer

Video
ID                               : 0
Format                           : MPEG-4 Visual
Format profile                   : Advanced Simple@L5
Format settings, BVOP            : 2
Format settings, QPel            : No
Format settings, GMC             : No warppoints
Format settings, Matrix          : Default (H.263)
Codec ID                         : XVID
Codec ID/Hint                    : XviD
Duration                         : 21mn 16s
Bit rate                         : 1 000 Kbps
Width                            : 624 pixels
Height                           : 352 pixels
Display aspect ratio             : 16:9
Frame rate                       : 23.976 fps
Color space                      : YUV
Chroma subsampling               : 4:2:0
Bit depth                        : 8 bits
Scan type                        : Progressive
Compression mode                 : Lossy
Bits/(Pixel*Frame)               : 0.190
Stream size                      : 152 MiB (88%)
Writing library                  : XviD 71

Audio
ID                               : 1
Format                           : MPEG Audio
Format version                   : Version 1
Format profile                   : Layer 3
Mode                             : Joint stereo
Mode extension                   : MS Stereo
Codec ID                         : 55
Codec ID/Hint                    : MP3
Duration                         : 21mn 16s
Bit rate mode                    : Variable
Bit rate                         : 128 Kbps
Channel(s)                       : 2 channels
Sampling rate                    : 48.0 KHz
Compression mode                 : Lossy
Stream size                      : 19.8 MiB (11%)
Alignment                        : Aligned on interleaves
Interleave, duration             : 24 ms (0.58 video frame)
Interleave, preload duration     : 507 ms
Writing library                  : LAME3.92 
Encoding settings                : -m j -V 4 -q 2 -lowpass 17.5 --abr 128

General
Complete name                    : Death.Valley.S01E11.FASTSUB.VOSTFR.HDTV.XviD-MiND.avi
Format                           : AVI
Format/Info                      : Audio Video Interleave
File size                        : 175 MiB
Duration                         : 21mn 9s
Overall bit rate mode            : Variable
Overall bit rate                 : 1 154 Kbps
Movie name                       : Death.Valley.S01E11.FASTSUB.VOSTFR.HDTV.XviD-MiND.avi
Genre                            : VOSTFR by MiND
Writing application              : MEncoder git-ab94fc6-4.4.3
Writing library                  : MPlayer
Copyright                        : MiND Project
Comment                          : MiND Project

Video
ID                               : 0
Format                           : MPEG-4 Visual
Format profile                   : Advanced Simple@L5
Format settings, BVOP            : 2
Format settings, QPel            : No
Format settings, GMC             : No warppoints
Format settings, Matrix          : Default (H.263)
Codec ID                         : XVID
Codec ID/Hint                    : XviD
Duration                         : 21mn 9s
Bit rate                         : 1 011 Kbps
Width                            : 624 pixels
Height                           : 352 pixels
Display aspect ratio             : 16:9
Frame rate                       : 23.976 fps
Color space                      : YUV
Chroma subsampling               : 4:2:0
Bit depth                        : 8 bits
Scan type                        : Progressive
Compression mode                 : Lossy
Bits/(Pixel*Frame)               : 0.192
Stream size                      : 153 MiB (88%)
Writing library                  : XviD 64

Audio
ID                               : 1
Format                           : MPEG Audio
Format version                   : Version 1
Format profile                   : Layer 3
Mode                             : Joint stereo
Mode extension                   : MS Stereo
Codec ID                         : 55
Codec ID/Hint                    : MP3
Duration                         : 21mn 9s
Bit rate mode                    : Variable
Bit rate                         : 128 Kbps
Channel(s)                       : 2 channels
Sampling rate                    : 48.0 KHz
Compression mode                 : Lossy
Stream size                      : 19.7 MiB (11%)
Alignment                        : Aligned on interleaves
Interleave, duration             : 24 ms (0.58 video frame)
Interleave, preload duration     : 536 ms
Writing library                  : LAME3.92 
Encoding settings                : -m j -V 4 -q 2 -lowpass 17.5 --abr 128

General
Complete name                    : Death.Valley.S01E12.VOSTFR.avi
Format                           : AVI
Format/Info                      : Audio Video Interleave
File size                        : 175 MiB
Duration                         : 20mn 31s
Overall bit rate mode            : Variable
Overall bit rate                 : 1 195 Kbps
Movie name                       : Death.Valley.S01E12.FASTSUB.VOSTFR.HDTV.XviD-MiND.avi
Genre                            : VOSTFR by MiND
Writing application              : MEncoder git-ab94fc6-4.4.3
Writing library                  : MPlayer
Copyright                        : MiND Project
Comment                          : MiND Project

Video
ID                               : 0
Format                           : MPEG-4 Visual
Format profile                   : Advanced Simple@L5
Format settings, BVOP            : 2
Format settings, QPel            : No
Format settings, GMC             : No warppoints
Format settings, Matrix          : Default (H.263)
Codec ID                         : XVID
Codec ID/Hint                    : XviD
Duration                         : 20mn 31s
Bit rate                         : 1 053 Kbps
Width                            : 624 pixels
Height                           : 352 pixels
Display aspect ratio             : 16:9
Frame rate                       : 23.976 fps
Color space                      : YUV
Chroma subsampling               : 4:2:0
Bit depth                        : 8 bits
Scan type                        : Progressive
Compression mode                 : Lossy
Bits/(Pixel*Frame)               : 0.200
Stream size                      : 155 MiB (88%)
Writing library                  : XviD 64

Audio
ID                               : 1
Format                           : MPEG Audio
Format version                   : Version 1
Format profile                   : Layer 3
Mode                             : Joint stereo
Mode extension                   : MS Stereo
Codec ID                         : 55
Codec ID/Hint                    : MP3
Duration                         : 20mn 31s
Bit rate mode                    : Variable
Bit rate                         : 128 Kbps
Channel(s)                       : 2 channels
Sampling rate                    : 48.0 KHz
Compression mode                 : Lossy
Stream size                      : 18.9 MiB (11%)
Alignment                        : Aligned on interleaves
Interleave, duration             : 24 ms (0.58 video frame)
Interleave, preload duration     : 490 ms

TÉLÉCHARGER "Death Valley Season 1 VOSTFR" 20x PLUS VITE AVEC USENET
Anonyme&Rapide – 14 jours gratuits

Ajouter un commentaire

1 - 20 | 21 - 21
Olioli25 ↑ 39.44 GB ↓ 52.63 GB Ratio: 0,74

Merci beaucoup!!! mais en effet, la traduction...bof bof mais la série est au top!!

Meditsh ↑ 598.68 GB ↓ 430.81 GB Ratio: 1,38

Effectivement la trad n'est pas toujours au rdv mais c'est pas ta faute et merci beaucoup pour le lien, tu m'as offerts de bons moments grâce à cette série x)

pipolagneau ↑ 1.41 TB ↓ 1.48 TB Ratio: 0,95

Traduction plus que moyenne...

ankounia ↑ 536.15 GB ↓ 659.77 GB Ratio: 0,81

merci pour le partage mais l'épisode 3 c'est l'épisode 1 donc est ce qu'il y a un épisode 3?

Furdown In god we trust ↑ 2.05 TB ↓ 584.35 GB Ratio: 3,58

Merci ! Super série !

plentin ↑ 137.22 GB ↓ 183.18 GB Ratio: 0,74

seed please

franklin411 Tek & Music Team ↑ 4.76 TB ↓ 2.98 TB Ratio: 1,59

Merci bien! Assez marrant!

Neva Forget

visty Vive Supernatural ↑ 4.79 TB ↓ 868.96 GB Ratio: 5,63

Merci je teste tout de suite.




mabidouile ↑ 976.11 GB ↓ 1.01 TB Ratio: 0,93

superbe serie

elageur78 ↑ 1.84 TB ↓ 2.46 TB Ratio: 0,74

bonne qualité vidéo/son, bonne série.
En revanche traduction de m***e pour beaucoup d'épisodes. Traduction Google sans doutes, et aucune correction de près ou de loin

throttle666 ↑ 513.38 GB ↓ 616.44 GB Ratio: 0,83

Merci cool !

Gor3 ↑ 317.87 GB ↓ 288.1 GB Ratio: 1,10

Merci

asatakanami ↑ 1.95 TB ↓ 1.83 TB Ratio: 1,06

merci

balou2 ↑ 2.03 TB ↓ 2.7 TB Ratio: 0,75

merci

wargla ↑ 467.49 GB ↓ 585.61 GB Ratio: 0,79

merci

latoum Pif Paf Pouf ↑ 107.32 TB ↓ 3.12 TB Ratio: 34,41

thk u du pack

Pif Paf Pouf !

St4n ↑ 11.19 TB ↓ 3.51 TB Ratio: 3,18

merci

dommage les fastsubs pour bien comprendre l'humour décalé.

alducars ↑ 3.48 TB ↓ 3.09 TB Ratio: 1,12

merci

neron66 ↑ 659.12 GB ↓ 863.02 GB Ratio: 0,76

merci!

knoxknox ↑ 2.52 TB ↓ 3.23 TB Ratio: 0,78

merci !

1 - 20 | 21 - 21
Télécharger "Death Valley Season 1 VOSTFR" en illimité a une vitesse de 1000 kbps grïâce aux 14 Jours d'essai gratuit offerts par Usenet.nl!
 
Loading...