Dexter.S06E09.FASTSUB.VOSTFR.720p.HDTV.x264-F4ST URL Raccourcie

Télécharger "Dexter.S06E09.FASTSUB.VOSTFR.720p.HDTV.x264-F4ST" en illimité a une vitesse de 1000 kbps grïâce aux 14 Jours d'essai gratuit offerts par Usenet.nl!
(¯`·._.·[   Dexter   ]·._.·´¯)





Origine de la serie : :
Titre original : Dexter
Saison :
Episodes :
Top Série : Aucune Information ...
Statut : Série en production- 8 saisons, 72 épisodes
Réalisateur : Aucune Information ...
Acteurs : Michael C. Hall, Jennifer Carpenter, Desmond Harrington  
Genre : Drame
Durée :
Date de diffusion : : Aucune Information ...



Brillant expert scientifique du service médico-légal de la police de Miami, Dexter Morgan est spécialisé dans l'analyse de prélèvements sanguins. Mais voilà, Dexter cache un terrible secret : il est également tueur en série. Un serial killer pas comme les autres, avec sa propre vision de la justice.


</div>



Hébergeur :
Qualité : HDRip
Format : Aucune Info
Langue : Anglais
Sous-titre :
Découper avec :
Nombre de fichiers : Fichiers
Taille des fichiers : Mo
Taille totale : 1700 Mo




[url]Si plusieurs liens (les uns en dessous des autres)[/url]


Mot de pass : Aucun

Total du post: 1700 Mo



↓↓↓ Dexter.S06E09.FASTSUB.VOSTFR.720p.HDTV.x264-F4ST ↓↓↓
 

www.usenet.nl

Seeders 0 Leechers 0 Téléchargements 2418
 
Télécharger Dire merci! Signaler
Voir la liste des membres qui vous remercient
↑↑↑ Dexter.S06E09.FASTSUB.VOSTFR.720p.HDTV.x264-F4ST ↑↑↑

Informations

Nom Dexter.S06E09.FASTSUB.VOSTFR.720p.HDTV.x264-F4ST
Torrent Dexter S0E09 720p VOSTFR.torrent
Catégorie Série TV
Taille totale 1.59 GB
Info Hash 7555a5065af860e6450beb6330b917c9af3a4c23
Uploadé par Anonymous
Uploadé le 2011-11-28 21:04:39 (+00:00)
Visites 3353
évaluation 4.6/5 (25 votes)

Liste des Fichiers

Path Size
Dexter.S06E09.FASTSUB.VOSTFR.720p.HDTV.x264-F4ST.mkv 1.59 GB

Voir le NFO

{\rtf1\ansi\ansicpg1252\cocoartf1138\cocoasubrtf230
{\fonttbl\f0\fmodern\fcharset0 Courier;}
{\colortbl;\red255\green255\blue255;\red245\green245\blue245;}
\paperw11900\paperh16840\margl1440\margr1440\vieww10800\viewh8400\viewkind0
\deftab720
\pard\pardeftab720

\f0\fs20 \cf0 \cb2 Dexter.S06E09.720p.HDTV.X264-DIMENSION-VOSTFR.mkv\
Format                           : Matroska\
File size                        : 1.71 GiB\
Duration                         : 50mn 32s\
Overall bit rate                 : 4 512 Kbps\
Encoded date                     : UTC 2011-11-28 18:41:29\
Writing application              : mkvmerge v4.9.1 ('Ich will') built on Jul 23 2011 17:10:39\
Writing library                  : libebml v1.2.1 + libmatroska v1.2.0\
\
Video\
ID                               : 1\
Format                           : AVC\
Format/Info                      : Advanced Video Codec\
Format profile                   : [email protected]\
Format settings, CABAC           : Yes\
Format settings, ReFrames        : 8 frames\
Codec ID                         : V_MPEG4/ISO/AVC\
Duration                         : 50mn 32s\
Bit rate                         : 4 039 Kbps\
Width                            : 1 280 pixels\
Height                           : 720 pixels\
Display aspect ratio             : 16:9\
Frame rate                       : 23.976 fps\
Color space                      : YUV\
Chroma subsampling               : 4:2:0\
Bit depth                        : 8 bits\
Scan type                        : Progressive\
Bits/(Pixel*Frame)               : 0.183\
Stream size                      : 1.43 GiB (90%)\
Writing library                  : x264 core 119 r2106 07efeb4\
Encoding settings                : cabac=1 / ref=8 / deblock=1:-2:-2 / analyse=0x3:0x113 / me=umh / subme=9 / psy=1 / psy_rd=1.00:0.00 / mixed_ref=1 / me_range=24 / chroma_me=1 / trellis=1 / 8x8dct=1 / cqm=0 / deadzone=21,11 / fast_pskip=0 / chroma_qp_offset=-2 / threads=12 / sliced_threads=0 / nr=0 / decimate=1 / interlaced=0 / bluray_compat=0 / constrained_intra=0 / bframes=5 / b_pyramid=2 / b_adapt=1 / b_bias=0 / direct=1 / weightb=1 / open_gop=0 / weightp=2 / keyint=250 / keyint_min=23 / scenecut=40 / intra_refresh=0 / rc_lookahead=40 / rc=crf / mbtree=1 / crf=18.0 / qcomp=0.60 / qpmin=0 / qpmax=69 / qpstep=4 / ip_ratio=1.40 / aq=1:1.00\
Language                         : English\
\
Audio\
ID                               : 2\
Format                           : AC-3\
Format/Info                      : Audio Coding 3\
Mode extension                   : CM (complete main)\
Codec ID                         : A_AC3\
Duration                         : 50mn 32s\
Bit rate mode                    : Constant\
Bit rate                         : 384 Kbps\
Channel(s)                       : 6 channels\
Channel positions                : Front: L C R, Side: L R, LFE\
Sampling rate                    : 48.0 KHz\
Bit depth                        : 16 bits\
Compression mode                 : Lossy\
Stream size                      : 139 MiB (9%)\
\
Text\
ID                               : 3\
Format                           : UTF-8\
Codec ID                         : S_TEXT/UTF8\
Codec ID/Info                    : UTF-8 Plain Text\
}

TÉLÉCHARGER "Dexter.S06E09.FASTSUB.VOSTFR.720p.HDTV.x264-F4ST" 20x PLUS VITE AVEC USENET
Anonyme&Rapide – 14 jours gratuits

Ajouter un commentaire

1 - 20 | 21 - 27
sons001

jeffsquad ↑ 3.4 TB ↓ 1.23 TB Ratio: 2,76

merci

sebobo25 ↑ 859.76 GB ↓ 836.25 GB Ratio: 1,02

merci

cha972 ↑ 265.93 GB ↓ 287.09 GB Ratio: 0,92

Merci

Multipasshdt ↑ 1.63 TB ↓ 1.62 TB Ratio: 1,00

Merci.

shindara1915 ↑ 1.52 TB ↓ 738.31 GB Ratio: 2,11

locs66: Il y a les sous titres (il y a des fois comme sa!!!)

Gigi7630 ↑ 5.12 TB ↓ 4.68 TB Ratio: 1,09

Merci !

moi2010 ↑ 1010.08 GB ↓ 1.02 TB Ratio: 0,97

BON

estasenorita ↑ 380.68 GB ↓ 200.38 GB Ratio: 1,89

post impec

Tinkytruck ↑ 320.98 GB ↓ 375.07 GB Ratio: 0,85

Vraiment très bien, manque pas de sous titres, bonnes traductions... MERCI !!!!!!!

soolkaz ↑ 1.55 TB ↓ 613.19 GB Ratio: 2,58

merci

Ukredfish

Merci à tous ceux qui disent qu'il n'y a pas de sous titres, d'employer le lecteur VLC. Il y a les sous titres, certes en FAST mais il y a les sous titres.

Ukredfish

d'où le fastsub dans le titre...les sub sont présents... avec VLC en tout cas.

Dernière édition par Ukredfish le 2011-11-29 19:32:48

locs66 ↑ 1.15 TB ↓ 627.78 GB Ratio: 1,87

psaur : merci c'est bien ce qu'il me semblait
shindara1915 : dans le titre en effet mais dans le paragraphe INFORMATION UPLOAD sous titre : VIDE ... d'où ma question et d'où la réponse de psaur !
il y a des fois comme ca !

swan56 ↑ 176.29 GB ↓ 100.43 GB Ratio: 1,75

merci bc^p

comaxam

merci

Wamdoo ↑ 1 TB ↓ 1.32 TB Ratio: 0,76

merci bcp !

shindara1915 ↑ 1.52 TB ↓ 738.31 GB Ratio: 2,11

papillon lune: Les sous titre sont bon pas OK ^^ Disons que la traduction est das qqs rare cas approximative mais sinon c'est bon!Je te rassure c'est vraiment rare seulement 2fois et sa ne gêne pas dans la compréhension de l'épisode!

shindara1915 ↑ 1.52 TB ↓ 738.31 GB Ratio: 2,11

locs66: vostFR = Version Original Sous Titré Français ce qui veut dire qu'il y a des sous titre ^^
C'est écrit dans le titre

Merci pour le partage

locs66 ↑ 1.15 TB ↓ 627.78 GB Ratio: 1,87

sous titre ou pas ? il y a marqué vostFR mais rien dans le détail...

1 - 20 | 21 - 27
Télécharger "Dexter.S06E09.FASTSUB.VOSTFR.720p.HDTV.x264-F4ST" en illimité a une vitesse de 1000 kbps grïâce aux 14 Jours d'essai gratuit offerts par Usenet.nl!
 
Loading...