[Film] Tu Ne Tueras Point French VOSTFR DvdRip DivX URL Raccourcie

Télécharger "[Film] Tu Ne Tueras Point French VOSTFR DvdRip DivX" en illimité a une vitesse de 1000 kbps grïâce aux 14 Jours d'essai gratuit offerts par Usenet.nl!



Origine Du Film : Pologne
Réalisateur : Krzysztof Kieslowski
Acteurs : Miroslaw Baka, Krzysztof Globisz, Jan Tezart  
Genre : Drame
Durée : 81 min
Année De Production : 1987
Titre Original : Tu Ne Tueras Point

Résumé :

Un jeune homme assassine le chauffeur d'un taxi qui le mène dans les faubourgs. Il est condamné à la pendaison. "Ce film est né d'une nécessité de parler de la peine de mort. Cette face là de la mort pèse sur nous et nous rend tous coupables". Contrairement à "Tu ne tueras point" qui est axé sur le point de vue de l'avocat, "le Décologue 5" présente le point de vue du "héros".



↓↓↓ [Film] Tu Ne Tueras Point French VOSTFR DvdRip DivX ↓↓↓
 

www.usenet.nl

Seeders 2 Leechers 0 Téléchargements 129
 
Télécharger Dire merci! Signaler
Voir la liste des membres qui vous remercient
↑↑↑ [Film] Tu Ne Tueras Point French VOSTFR DvdRip DivX ↑↑↑

Informations

Nom [Film] Tu Ne Tueras Point French VOSTFR DvdRip DivX
Torrent Tu Ne Tueras Point VOSTFR.torrent
Catégorie Film
Taille totale 1.38 GB
Info Hash 38af1277037f55f2de795070385f0b184776b727
Uploadé par ludovico69
Uploadé le 2012-08-02 21:03:25 (+00:00)
Visites 187
évaluation 4.8/5 (5 votes)

Liste des Fichiers

Path Size
Tu Ne Tueras Point VOSTFR/info.nfo 2.73 KB
Tu Ne Tueras Point VOSTFR/Tu ne tueras point.avi 1.38 GB

Voir le NFO

General
Complete name                            : F:\Films\Tu Ne Tueras Point VOSTFR\Tu ne tueras point.avi
Format                                   : AVI
Format/Info                              : Audio Video Interleave
Format profile                           : OpenDML
File size                                : 1.38 GiB
Duration                                 : 1h 21mn
Overall bit rate                         : 2 439 Kbps
Writing application                      : Lavf51.12.1

Video
ID                                       : 0
Format                                   : MPEG-4 Visual
Format profile                           : Simple@L1
Format settings, BVOP                    : No
Format settings, QPel                    : No
Format settings, GMC                     : No warppoints
Format settings, Matrix                  : Default (H.263)
Codec ID                                 : DX50
Codec ID/Hint                            : DivX 5
Duration                                 : 1h 21mn
Bit rate                                 : 2 168 Kbps
Width                                    : 720 pixels
Height                                   : 576 pixels
Display aspect ratio                     : 16:9
Frame rate                               : 25.000 fps
Standard                                 : PAL
Color space                              : YUV
Chroma subsampling                       : 4:2:0
Bit depth                                : 8 bits
Scan type                                : Progressive
Compression mode                         : Lossy
Bits/(Pixel*Frame)                       : 0.209
Stream size                              : 1.23 GiB (89%)
Writing library                          : Lavc51.40.4

Audio
ID                                       : 1
Format                                   : MPEG Audio
Format version                           : Version 1
Format profile                           : Layer 3
Mode                                     : Joint stereo
Mode extension                           : MS Stereo
Codec ID                                 : 55
Codec ID/Hint                            : MP3
Duration                                 : 1h 21mn
Bit rate mode                            : Constant
Bit rate                                 : 256 Kbps
Channel(s)                               : 2 channels
Sampling rate                            : 48.0 KHz
Compression mode                         : Lossy
Stream size                              : 149 MiB (10%)
Alignment                                : Aligned on interleaves
Interleave, duration                     : 24 ms (0.60 video frame)
Interleave, preload duration             : 24 ms
Writing library                          : LAME3.97

Ajouter un commentaire

ludovico69 ↑ 419.49 GB ↓ 539.76 GB Ratio: 0,77

J'ai fait une erreur dans la présentation la durée du film est bien de 1h21 non pas 57 minutes, c'est la version vendue à part sous le label mk2

jomacail ↑ 665.22 GB ↓ 355.1 GB Ratio: 1,87

C'est une version tirée du décalogue 5, sa durée n'est pas de 57 minutes comme les décalogues, mais d'environ 1h30.

ludovico69 ↑ 419.49 GB ↓ 539.76 GB Ratio: 0,77

N'est pas doublon du coffret DVD déjà présent, ici c'est seulement 1 des dix films.

Télécharger "[Film] Tu Ne Tueras Point French VOSTFR DvdRip DivX" en illimité a une vitesse de 1000 kbps grïâce aux 14 Jours d'essai gratuit offerts par Usenet.nl!
 
Loading...