Fortier SÉRIE COMPLÈTE Saisons 1-5 URL Raccourcie

Télécharger "Fortier SÉRIE COMPLÈTE Saisons 1-5" en illimité a une vitesse de 1000 kbps grïâce aux 14 Jours d'essai gratuit offerts par Usenet.nl!
Voici la célèbre série québécoise culte Fortier de l'auteure Fabienne Larouche. La piste audio est l'originale, en français québécois. Toutes les 5 saisons (42 épisodes) sont incluses.



Anne Fortier, une psychologue très douée arrive au Service Anti-Sociopathes, le SAS de la ville de Montréal. Elle apporte son expertise à l'équipe de Gabriel Johnson et ses collègues Parent, Mayrand et Dufour. Ensemble ils devront élucider des crimes hors de l'ordinaire. C'est une série policière unique!

J'ai déjà trouvé un torrent similaire mais il n'inclut pas la saison 4. Surtout, il y a ces sous-titres imprimés dans l'image qui me dérangent dans tous les épisodes.

Ceci n'est pas mon "rip", les DVD de la série sont introuvables. C'est mon assemblage de fichiers trouvés un peu partout et rassemblés dans un torrent que je partage ici pour la postérité. C'est ce que j'ai trouvé de mieux depuis des années de recherche. Il s'agit d'un DVDrip qui a été compressé à l'origine. Tous les 42 épisodes sont inclus, en fichiers séparés. Les vidéos ont certains artefacts de compression mais considérant la rareté des fichiers sources et l'époque de diffusion originale, c'est très bien.

La qualité audio/vidéo des épisodes est constante. Il faut synchroniser la piste audio de plus ou moins 0,3 ou 0,2 secondes pour les premières saisons avec un lecteur comme VLC.



Bonne écoute tout le monde!



↓↓↓ Fortier SÉRIE COMPLÈTE Saisons 1-5 ↓↓↓
 

www.usenet.nl

Seeders 37 Leechers 3 Téléchargements 769
 
Télécharger Dire merci! Signaler
Voir la liste des membres qui vous remercient
↑↑↑ Fortier SÉRIE COMPLÈTE Saisons 1-5 ↑↑↑

Informations

Nom Fortier SÉRIE COMPLÈTE Saisons 1-5
Torrent Fortier SÉRIE COMPLÈTE Saisons 1-5.torrent
Catégorie Série TV
Taille totale 14.97 GB
Info Hash fb56b2b7386ea35c8dd2f8a6dda8af6f26af9278
Uploadé par twilightone
Uploadé le 2013-04-17 07:33:41 (+00:00)
Visites 1727
évaluation 4.9/5 (14 votes)

Liste des Fichiers

Path Size
Fortier/FORTIER.S2.08.FiNAL.avi 370.72 MB
Fortier/FORTIER.S2.06.avi 370.59 MB
Fortier/FORTIER.S2.01.avi 370.57 MB
Fortier/FORTIER.S2.02.avi 370.51 MB
Fortier/FORTIER.S2.07.avi 370.5 MB
Fortier/FORTIER.S4.06.avi 369.79 MB
Fortier/FORTIER.S1.10.FiNAL.avi 369.74 MB
Fortier/FORTIER.S1.08.avi 369.72 MB
Fortier/FORTIER.S1.06.avi 369.66 MB
Fortier/FORTIER.S1.09.avi 369.59 MB
Fortier/FORTIER.S1.03.avi 369.58 MB
Fortier/FORTIER.S1.04.avi 369.56 MB
Fortier/FORTIER.S1.05.avi 369.56 MB
Fortier/FORTIER.S1.07.avi 369.36 MB
Fortier/FORTIER.S1.02.avi 369.15 MB
Fortier/FORTIER.S2.03.avi 368.9 MB
Fortier/FORTIER.S4.05.avi 368.77 MB
Fortier/FORTIER.S4.03.avi 368.76 MB
Fortier/FORTIER.S4.07.avi 368.72 MB
Fortier/FORTIER.S3.02.avi 368.7 MB
Fortier/FORTIER.S3.03.avi 368.7 MB
Fortier/FORTIER.S3.04.avi 368.62 MB
Fortier/FORTIER.S3.01.avi 368.6 MB
Fortier/FORTIER.S4.04.avi 368.55 MB
Fortier/FORTIER.S3.06.avi 368.38 MB
Fortier/FORTIER.S2.05.avi 367.29 MB
Fortier/FORTIER.S2.04.avi 367.04 MB
Fortier/FORTIER.S1.01.avi 366.04 MB
Fortier/FORTIER.S3.07.avi 365.05 MB
Fortier/FORTIER.S5.08.FiNAL.avi 364.57 MB
Fortier/FORTIER.S5.04.avi 364.5 MB
Fortier/FORTIER.S5.05.avi 364.49 MB
Fortier/FORTIER.S5.02.avi 364.3 MB
Fortier/FORTIER.S4.02.avi 363.76 MB
Fortier/FORTIER.S5.06.avi 360.17 MB
Fortier/FORTIER.S4.01.avi 358.57 MB
Fortier/FORTIER.S5.01.avi 357.45 MB
Fortier/FORTIER.S3.05.avi 354.7 MB
Fortier/FORTIER.S5.03.avi 347.68 MB
Fortier/FORTIER.S3.08.FiNAL.avi 346.58 MB
Fortier/FORTIER.S5.07.avi 346.04 MB
Fortier/FORTIER.S4.08.FiNAL.avi 337.19 MB
Fortier/Fortier.nfo 111.78 KB

Voir le NFO

General
Complete name                            : C:\Fortier\FORTIER.S1.01.avi
Format                                   : AVI
Format/Info                              : Audio Video Interleave
File size                                : 366 MiB
Duration                                 : 45mn 20s
Overall bit rate                         : 1 129 Kbps
Writing application                      : Lavf54.61.104
Writing library                          : VirtualDub build 32842/release

Video
ID                                       : 0
Format                                   : MPEG-4 Visual
Format profile                           : Simple@L3
Format settings, BVOP                    : No
Format settings, QPel                    : No
Format settings, GMC                     : No warppoints
Format settings, Matrix                  : Default (H.263)
Codec ID                                 : XVID
Codec ID/Hint                            : XviD
Duration                                 : 45mn 20s
Bit rate                                 : 989 Kbps
Width                                    : 624 pixels
Height                                   : 352 pixels
Display aspect ratio                     : 16:9
Frame rate                               : 29.970 fps
Color space                              : YUV
Chroma subsampling                       : 4:2:0
Bit depth                                : 8 bits
Scan type                                : Progressive
Compression mode                         : Lossy
Bits/(Pixel*Frame)                       : 0.150
Stream size                              : 321 MiB (88%)
Writing library                          : XviD 64

Audio
ID                                       : 1
Format                                   : MPEG Audio
Format version                           : Version 1
Format profile                           : Layer 3
Mode                                     : Joint stereo
Mode extension                           : MS Stereo
Codec ID                                 : 55
Codec ID/Hint                            : MP3
Duration                                 : 45mn 19s
Bit rate mode                            : Constant
Bit rate                                 : 128 Kbps
Channel(s)                               : 2 channels
Sampling rate                            : 48.0 KHz
Compression mode                         : Lossy
Stream size                              : 41.5 MiB (11%)
Alignment                                : Split accross interleaves
Interleave, duration                     : 33 ms (1.00 video frame)
Interleave, preload duration             : 500 ms

General
Complete name                            : C:\Users\Marc-Antoine\Downloads\SEED\Fortier\FORTIER.S1.02.avi
Format                                   : AVI
Format/Info                              : Audio Video Interleave
File size                                : 369 MiB
Duration                                 : 45mn 17s
Overall bit rate                         : 1 140 Kbps
Writing application                      : Lavf54.61.104
Writing library                          : VirtualDub build 32842/release

Video
ID                                       : 0
Format                                   : MPEG-4 Visual
Format profile                           : Simple@L3
Format settings, BVOP                    : No
Format settings, QPel                    : No
Format settings, GMC                     : No warppoints
Format settings, Matrix                  : Default (H.263)
Codec ID                                 : XVID
Codec ID/Hint                            : XviD
Duration                                 : 45mn 17s
Bit rate                                 : 1 000 Kbps
Width                                    : 624 pixels
Height                                   : 352 pixels
Display aspect ratio                     : 16:9
Frame rate                               : 29.970 fps
Color space                              : YUV
Chroma subsampling                       : 4:2:0
Bit depth                                : 8 bits
Scan type                                : Progressive
Compression mode                         : Lossy
Bits/(Pixel*Frame)                       : 0.152
Stream size                              : 324 MiB (88%)
Writing library                          : XviD 64

Audio
ID                                       : 1
Format                                   : MPEG Audio
Format version                           : Version 1
Format profile                           : Layer 3
Mode                                     : Joint stereo
Mode extension                           : MS Stereo
Codec ID                                 : 55
Codec ID/Hint                            : MP3
Duration                                 : 45mn 16s
Bit rate mode                            : Constant
Bit rate                                 : 128 Kbps
Channel(s)                               : 2 channels
Sampling rate                            : 48.0 KHz
Compression mode                         : Lossy
Stream size                              : 41.5 MiB (11%)
Alignment                                : Split accross interleaves
Interleave, duration                     : 33 ms (1.00 video frame)
Interleave, preload duration             : 500 ms

General
Complete name                            : C:\Users\Marc-Antoine\Downloads\SEED\Fortier\FORTIER.S1.03.avi
Format                                   : AVI
Format/Info                              : Audio Video Interleave
File size                                : 370 MiB
Duration                                 : 45mn 20s
Overall bit rate                         : 1 140 Kbps
Writing application                      : Lavf54.61.104
Writing library                          : VirtualDub build 32842/release

Video
ID                                       : 0
Format                                   : MPEG-4 Visual
Format profile                           : Simple@L3
Format settings, BVOP                    : No
Format settings, QPel                    : No
Format settings, GMC                     : No warppoints
Format settings, Matrix                  : Default (H.263)
Codec ID                                 : XVID
Codec ID/Hint                            : XviD
Duration                                 : 45mn 20s
Bit rate                                 : 1 000 Kbps
Width                                    : 624 pixels
Height                                   : 352 pixels
Display aspect ratio                     : 16:9
Frame rate                               : 29.970 fps
Color space                              : YUV
Chroma subsampling                       : 4:2:0
Bit depth                                : 8 bits
Scan type                                : Progressive
Compression mode                         : Lossy
Bits/(Pixel*Frame)                       : 0.152
Stream size                              : 324 MiB (88%)
Writing library                          : XviD 64

Audio
ID                                       : 1
Format                                   : MPEG Audio
Format version                           : Version 1
Format profile                           : Layer 3
Mode                                     : Joint stereo
Mode extension                           : MS Stereo
Codec ID                                 : 55
Codec ID/Hint                            : MP3
Duration                                 : 45mn 20s
Bit rate mode                            : Constant
Bit rate                                 : 128 Kbps
Channel(s)                               : 2 channels
Sampling rate                            : 48.0 KHz
Compression mode                         : Lossy
Stream size                              : 41.5 MiB (11%)
Alignment                                : Split accross interleaves
Interleave, duration                     : 33 ms (1.00 video frame)
Interleave, preload duration             : 500 ms

General
Complete name                            : C:\Users\Marc-Antoine\Downloads\SEED\Fortier\FORTIER.S1.04.avi
Format                                   : AVI
Format/Info                              : Audio Video Interleave
File size                                : 370 MiB
Duration                                 : 45mn 20s
Overall bit rate                         : 1 140 Kbps
Writing application                      : Lavf54.61.104
Writing library                          : VirtualDub build 32842/release

Video
ID                                       : 0
Format                                   : MPEG-4 Visual
Format profile                           : Simple@L3
Format settings, BVOP                    : No
Format settings, QPel                    : No
Format settings, GMC                     : No warppoints
Format settings, Matrix                  : Default (H.263)
Codec ID                                 : XVID
Codec ID/Hint                            : XviD
Duration                                 : 45mn 20s
Bit rate                                 : 1 000 Kbps
Width                                    : 624 pixels
Height                                   : 352 pixels
Display aspect ratio                     : 16:9
Frame rate                               : 29.970 fps
Color space                              : YUV
Chroma subsampling                       : 4:2:0
Bit depth                                : 8 bits
Scan type                                : Progressive
Compression mode                         : Lossy
Bits/(Pixel*Frame)                       : 0.152
Stream size                              : 324 MiB (88%)
Writing library                          : XviD 64

Audio
ID                                       : 1
Format                                   : MPEG Audio
Format version                           : Version 1
Format profile                           : Layer 3
Mode                                     : Joint stereo
Mode extension                           : MS Stereo
Codec ID                                 : 55
Codec ID/Hint                            : MP3
Duration                                 : 45mn 20s
Bit rate mode                            : Constant
Bit rate                                 : 128 Kbps
Channel(s)                               : 2 channels
Sampling rate                            : 48.0 KHz
Compression mode                         : Lossy
Stream size                              : 41.5 MiB (11%)
Alignment                                : Split accross interleaves
Interleave, duration                     : 33 ms (1.00 video frame)
Interleave, preload duration             : 500 ms

General
Complete name                            : C:\Users\Marc-Antoine\Downloads\SEED\Fortier\FORTIER.S1.05.avi
Format                                   : AVI
Format/Info                              : Audio Video Interleave
File size                                : 370 MiB
Duration                                 : 45mn 20s
Overall bit rate                         : 1 140 Kbps
Writing application                      : Lavf54.61.104
Writing library                          : VirtualDub build 32842/release

Video
ID                                       : 0
Format                                   : MPEG-4 Visual
Format profile                           : Simple@L3
Format settings, BVOP                    : No
Format settings, QPel                    : No
Format settings, GMC                     : No warppoints
Format settings, Matrix                  : Default (H.263)
Codec ID                                 : XVID
Codec ID/Hint                            : XviD
Duration                                 : 45mn 20s
Bit rate                                 : 1 000 Kbps
Width                                    : 624 pixels
Height                                   : 352 pixels
Display aspect ratio                     : 16:9
Frame rate                               : 29.970 fps
Color space                              : YUV
Chroma subsampling                       : 4:2:0
Bit depth                                : 8 bits
Scan type                                : Progressive
Compression mode                         : Lossy
Bits/(Pixel*Frame)                       : 0.152
Stream size                              : 324 MiB (88%)
Writing library                          : XviD 64

Audio
ID                                       : 1
Format                                   : MPEG Audio
Format version                           : Version 1
Format profile                           : Layer 3
Mode                                     : Joint stereo
Mode extension                           : MS Stereo
Codec ID                                 : 55
Codec ID/Hint                            : MP3
Duration                                 : 45mn 20s
Bit rate mode                            : Constant
Bit rate                                 : 128 Kbps
Channel(s)                               : 2 channels
Sampling rate                            : 48.0 KHz
Compression mode                         : Lossy
Stream size                              : 41.5 MiB (11%)
Alignment                                : Split accross interleaves
Interleave, duration                     : 33 ms (1.00 video frame)
Interleave, preload duration             : 500 ms

General
Complete name                            : C:\Users\Marc-Antoine\Downloads\SEED\Fortier\FORTIER.S1.06.avi
Format                                   : AVI
Format/Info                              : Audio Video Interleave
File size                                : 370 MiB
Duration                                 : 45mn 21s
Overall bit rate                         : 1 140 Kbps
Writing application                      : Lavf54.61.104
Writing library                          : VirtualDub build 32842/release

Video
ID                                       : 0
Format                                   : MPEG-4 Visual
Format profile                           : Simple@L3
Format settings, BVOP                    : No
Format settings, QPel                    : No
Format settings, GMC                     : No warppoints
Format settings, Matrix                  : Default (H.263)
Codec ID                                 : XVID
Codec ID/Hint                            : XviD
Duration                                 : 45mn 21s
Bit rate                                 : 1 000 Kbps
Width                                    : 624 pixels
Height                                   : 352 pixels
Display aspect ratio                     : 16:9
Frame rate                               : 29.970 fps
Color space                              : YUV
Chroma subsampling                       : 4:2:0
Bit depth                                : 8 bits
Scan type                                : Progressive
Compression mode                         : Lossy
Bits/(Pixel*Frame)                       : 0.152
Stream size                              : 324 MiB (88%)
Writing library                          : XviD 64

Audio
ID                                       : 1
Format                                   : MPEG Audio
Format version                           : Version 1
Format profile                           : Layer 3
Mode                                     : Joint stereo
Mode extension                           : MS Stereo
Codec ID                                 : 55
Codec ID/Hint                            : MP3
Duration                                 : 45mn 21s
Bit rate mode                            : Constant
Bit rate                                 : 128 Kbps
Channel(s)                               : 2 channels
Sampling rate                            : 48.0 KHz
Compression mode                         : Lossy
Stream size                              : 41.5 MiB (11%)
Alignment                                : Split accross interleaves
Interleave, duration                     : 33 ms (1.00 video frame)
Interleave, preload duration             : 500 ms

General
Complete name                            : C:\Users\Marc-Antoine\Downloads\SEED\Fortier\FORTIER.S1.07.avi
Format                                   : AVI
Format/Info                              : Audio Video Interleave
File size                                : 369 MiB
Duration                                 : 45mn 19s
Overall bit rate                         : 1 139 Kbps
Writing application                      : Lavf54.61.104
Writing library                          : VirtualDub build 32842/release

Video
ID                                       : 0
Format                                   : MPEG-4 Visual
Format profile                           : Simple@L3
Format settings, BVOP                    : No
Format settings, QPel                    : No
Format settings, GMC                     : No warppoints
Format settings, Matrix                  : Default (H.263)
Codec ID                                 : XVID
Codec ID/Hint                            : XviD
Duration                                 : 45mn 19s
Bit rate                                 : 1 000 Kbps
Width                                    : 624 pixels
Height                                   : 352 pixels
Display aspect ratio                     : 16:9
Frame rate                               : 29.970 fps
Color space                              : YUV
Chroma subsampling                       : 4:2:0
Bit depth                                : 8 bits
Scan type                                : Progressive
Compression mode                         : Lossy
Bits/(Pixel*Frame)                       : 0.152
Stream size                              : 324 MiB (88%)
Writing library                          : XviD 64

Audio
ID                                       : 1
Format                                   : MPEG Audio
Format version                           : Version 1
Format profile                           : Layer 3
Mode                                     : Joint stereo
Mode extension                           : MS Stereo
Codec ID                                 : 55
Codec ID/Hint                            : MP3
Duration                                 : 45mn 19s
Bit rate mode                            : Constant
Bit rate                                 : 128 Kbps
Channel(s)                               : 2 channels
Sampling rate                            : 48.0 KHz
Compression mode                         : Lossy
Stream size                              : 41.5 MiB (11%)
Alignment                                : Split accross interleaves
Interleave, duration                     : 33 ms (1.00 video frame)
Interleave, preload duration             : 500 ms

General
Complete name                            : C:\Users\Marc-Antoine\Downloads\SEED\Fortier\FORTIER.S1.08.avi
Format                                   : AVI
Format/Info                              : Audio Video Interleave
File size                                : 370 MiB
Duration                                 : 45mn 21s
Overall bit rate                         : 1 140 Kbps
Writing application                      : Lavf54.61.104
Writing library                          : VirtualDub build 32842/release

Video
ID                                       : 0
Format                                   : MPEG-4 Visual
Format profile                           : Simple@L3
Format settings, BVOP                    : No
Format settings, QPel                    : No
Format settings, GMC                     : No warppoints
Format settings, Matrix                  : Default (H.263)
Codec ID                                 : XVID
Codec ID/Hint                            : XviD
Duration                                 : 45mn 21s
Bit rate                                 : 1 000 Kbps
Width                                    : 624 pixels
Height                                   : 352 pixels
Display aspect ratio                     : 16:9
Frame rate                               : 29.970 fps
Color space                              : YUV
Chroma subsampling                       : 4:2:0
Bit depth                                : 8 bits
Scan type                                : Progressive
Compression mode                         : Lossy
Bits/(Pixel*Frame)                       : 0.152
Stream size                              : 324 MiB (88%)
Writing library                          : XviD 64

Audio
ID                                       : 1
Format                                   : MPEG Audio
Format version                           : Version 1
Format profile                           : Layer 3
Mode                                     : Joint stereo
Mode extension                           : MS Stereo
Codec ID                                 : 55
Codec ID/Hint                            : MP3
Duration                                 : 45mn 21s
Bit rate mode                            : Constant
Bit rate                                 : 128 Kbps
Channel(s)                               : 2 channels
Sampling rate                            : 48.0 KHz
Compression mode                         : Lossy
Stream size                              : 41.5 MiB (11%)
Alignment                                : Split accross interleaves
Interleave, duration                     : 33 ms (1.00 video frame)
Interleave, preload duration             : 500 ms

General
Complete name                            : C:\Users\Marc-Antoine\Downloads\SEED\Fortier\FORTIER.S1.09.avi
Format                                   : AVI
Format/Info                              : Audio Video Interleave
File size                                : 370 MiB
Duration                                 : 45mn 21s
Overall bit rate                         : 1 139 Kbps
Writing application                      : Lavf54.61.104
Writing library                          : VirtualDub build 32842/release

Video
ID                                       : 0
Format                                   : MPEG-4 Visual
Format profile                           : Simple@L3
Format settings, BVOP                    : No
Format settings, QPel                    : No
Format settings, GMC                     : No warppoints
Format settings, Matrix                  : Default (H.263)
Codec ID                                 : XVID
Codec ID/Hint                            : XviD
Duration                                 : 45mn 21s
Bit rate                                 : 1 000 Kbps
Width                                    : 624 pixels
Height                                   : 352 pixels
Display aspect ratio                     : 16:9
Frame rate                               : 29.970 fps
Color space                              : YUV
Chroma subsampling                       : 4:2:0
Bit depth                                : 8 bits
Scan type                                : Progressive
Compression mode                         : Lossy
Bits/(Pixel*Frame)                       : 0.152
Stream size                              : 324 MiB (88%)
Writing library                          : XviD 64

Audio
ID                                       : 1
Format                                   : MPEG Audio
Format version                           : Version 1
Format profile                           : Layer 3
Mode                                     : Joint stereo
Mode extension                           : MS Stereo
Codec ID                                 : 55
Codec ID/Hint                            : MP3
Duration                                 : 45mn 21s
Bit rate mode                            : Constant
Bit rate                                 : 128 Kbps
Channel(s)                               : 2 channels
Sampling rate                            : 48.0 KHz
Compression mode                         : Lossy
Stream size                              : 41.5 MiB (11%)
Alignment                                : Split accross interleaves
Interleave, duration                     : 33 ms (1.00 video frame)
Interleave, preload duration             : 500 ms

General
Complete name                            : C:\Users\Marc-Antoine\Downloads\SEED\Fortier\FORTIER.S1.10.FiNAL.avi
Format                                   : AVI
Format/Info                              : Audio Video Interleave
File size                                : 370 MiB
Duration                                 : 45mn 22s
Overall bit rate                         : 1 139 Kbps
Writing application                      : Lavf54.61.104
Writing library                          : VirtualDub build 32842/release

Video
ID                                       : 0
Format                                   : MPEG-4 Visual
Format profile                           : Simple@L3
Format settings, BVOP                    : No
Format settings, QPel                    : No
Format settings, GMC                     : No warppoints
Format settings, Matrix                  : Default (H.263)
Codec ID                                 : XVID
Codec ID/Hint                            : XviD
Duration                                 : 45mn 22s
Bit rate                                 : 1 000 Kbps
Width                                    : 624 pixels
Height                                   : 352 pixels
Display aspect ratio                     : 16:9
Frame rate                               : 29.970 fps
Color space                              : YUV
Chroma subsampling                       : 4:2:0
Bit depth                                : 8 bits
Scan type                                : Progressive
Compression mode                         : Lossy
Bits/(Pixel*Frame)                       : 0.152
Stream size                              : 324 MiB (88%)
Writing library                          : XviD 64

Audio
ID                                       : 1
Format                                   : MPEG Audio
Format version                           : Version 1
Format profile                           : Layer 3
Mode                                     : Joint stereo
Mode extension                           : MS Stereo
Codec ID                                 : 55
Codec ID/Hint                            : MP3
Duration                                 : 45mn 22s
Bit rate mode                            : Constant
Bit rate                                 : 128 Kbps
Channel(s)                               : 2 channels
Sampling rate                            : 48.0 KHz
Compression mode                         : Lossy
Stream size                              : 41.5 MiB (11%)
Alignment                                : Split accross interleaves
Interleave, duration                     : 33 ms (1.00 video frame)
Interleave, preload duration             : 500 ms

General
Complete name                            : C:\Users\Marc-Antoine\Downloads\SEED\Fortier\FORTIER.S2.01.avi
Format                                   : AVI
Format/Info                              : Audio Video Interleave
File size                                : 371 MiB
Duration                                 : 45mn 28s
Overall bit rate                         : 1 139 Kbps
Writing application                      : Lavf54.61.104
Writing library                          : VirtualDub build 32842/release

Video
ID                                       : 0
Format                                   : MPEG-4 Visual
Format profile                           : Simple@L3
Format settings, BVOP                    : No
Format settings, QPel                    : No
Format settings, GMC                     : No warppoints
Format settings, Matrix                  : Default (H.263)
Codec ID                                 : XVID
Codec ID/Hint                            : XviD
Duration                                 : 45mn 28s
Bit rate                                 : 1 000 Kbps
Width                                    : 624 pixels
Height                                   : 352 pixels
Display aspect ratio                     : 16:9
Frame rate                               : 29.970 fps
Color space                              : YUV
Chroma subsampling                       : 4:2:0
Bit depth                                : 8 bits
Scan type                                : Progressive
Compression mode                         : Lossy
Bits/(Pixel*Frame)                       : 0.152
Stream size                              : 325 MiB (88%)
Writing library                          : XviD 64

Audio
ID                                       : 1
Format                                   : MPEG Audio
Format version                           : Version 1
Format profile                           : Layer 3
Mode                                     : Joint stereo
Mode extension                           : MS Stereo
Codec ID                                 : 55
Codec ID/Hint                            : MP3
Duration                                 : 45mn 28s
Bit rate mode                            : Constant
Bit rate                                 : 128 Kbps
Channel(s)                               : 2 channels
Sampling rate                            : 48.0 KHz
Compression mode                         : Lossy
Stream size                              : 41.6 MiB (11%)
Alignment                                : Split accross interleaves
Interleave, duration                     : 33 ms (1.00 video frame)
Interleave, preload duration             : 500 ms

General
Complete name                            : C:\Users\Marc-Antoine\Downloads\SEED\Fortier\FORTIER.S2.02.avi
Format                                   : AVI
Format/Info                              : Audio Video Interleave
File size                                : 371 MiB
Duration                                 : 45mn 28s
Overall bit rate                         : 1 139 Kbps
Writing application                      : Lavf54.61.104
Writing library                          : VirtualDub build 32842/release

Video
ID                                       : 0
Format                                   : MPEG-4 Visual
Format profile                           : Simple@L3
Format settings, BVOP                    : No
Format settings, QPel                    : No
Format settings, GMC                     : No warppoints
Format settings, Matrix                  : Default (H.263)
Codec ID                                 : XVID
Codec ID/Hint                            : XviD
Duration                                 : 45mn 28s
Bit rate                                 : 1 000 Kbps
Width                                    : 624 pixels
Height                                   : 352 pixels
Display aspect ratio                     : 16:9
Frame rate                               : 29.970 fps
Color space                              : YUV
Chroma subsampling                       : 4:2:0
Bit depth                                : 8 bits
Scan type                                : Progressive
Compression mode                         : Lossy
Bits/(Pixel*Frame)                       : 0.152
Stream size                              : 325 MiB (88%)
Writing library                          : XviD 64

Audio
ID                                       : 1
Format                                   : MPEG Audio
Format version                           : Version 1
Format profile                           : Layer 3
Mode                                     : Joint stereo
Mode extension                           : MS Stereo
Codec ID                                 : 55
Codec ID/Hint                            : MP3
Duration                                 : 45mn 28s
Bit rate mode                            : Constant
Bit rate                                 : 128 Kbps
Channel(s)                               : 2 channels
Sampling rate                            : 48.0 KHz
Compression mode                         : Lossy
Stream size                              : 41.6 MiB (11%)
Alignment                                : Split accross interleaves
Interleave, duration                     : 33 ms (1.00 video frame)
Interleave, preload duration             : 500 ms

General
Complete name                            : C:\Users\Marc-Antoine\Downloads\SEED\Fortier\FORTIER.S2.03.avi
Format                                   : AVI
Format/Info                              : Audio Video Interleave
File size                                : 369 MiB
Duration                                 : 45mn 28s
Overall bit rate                         : 1 134 Kbps
Writing application                      : Lavf54.61.104
Writing library                          : VirtualDub build 32842/release

Video
ID                                       : 0
Format                                   : MPEG-4 Visual
Format profile                           : Simple@L3
Format settings, BVOP                    : No
Format settings, QPel                    : No
Format settings, GMC                     : No warppoints
Format settings, Matrix                  : Default (H.263)
Codec ID                                 : XVID
Codec ID/Hint                            : XviD
Duration                                 : 45mn 28s
Bit rate                                 : 995 Kbps
Width                                    : 624 pixels
Height                                   : 352 pixels
Display aspect ratio                     : 16:9
Frame rate                               : 29.970 fps
Color space                              : YUV
Chroma subsampling                       : 4:2:0
Bit depth                                : 8 bits
Scan type                                : Progressive
Compression mode                         : Lossy
Bits/(Pixel*Frame)                       : 0.151
Stream size                              : 323 MiB (88%)
Writing library                          : XviD 64

Audio
ID                                       : 1
Format                                   : MPEG Audio
Format version                           : Version 1
Format profile                           : Layer 3
Mode                                     : Joint stereo
Mode extension                           : MS Stereo
Codec ID                                 : 55
Codec ID/Hint                            : MP3
Duration                                 : 45mn 28s
Bit rate mode                            : Constant
Bit rate                                 : 128 Kbps
Channel(s)                               : 2 channels
Sampling rate                            : 48.0 KHz
Compression mode                         : Lossy
Stream size                              : 41.6 MiB (11%)
Alignment                                : Split accross interleaves
Interleave, duration                     : 33 ms (1.00 video frame)
Interleave, preload duration             : 500 ms

General
Complete name                            : C:\Users\Marc-Antoine\Downloads\SEED\Fortier\FORTIER.S2.04.avi
Format                                   : AVI
Format/Info                              : Audio Video Interleave
File size                                : 367 MiB
Duration                                 : 45mn 2s
Overall bit rate                         : 1 139 Kbps
Writing application                      : Lavf54.61.104
Writing library                          : VirtualDub build 32842/release

Video
ID                                       : 0
Format                                   : MPEG-4 Visual
Format profile                           : Simple@L3
Format settings, BVOP                    : No
Format settings, QPel                    : No
Format settings, GMC                     : No warppoints
Format settings, Matrix                  : Default (H.263)
Codec ID                                 : XVID
Codec ID/Hint                            : XviD
Duration                                 : 45mn 2s
Bit rate                                 : 1 000 Kbps
Width                                    : 624 pixels
Height                                   : 352 pixels
Display aspect ratio                     : 16:9
Frame rate                               : 29.970 fps
Color space                              : YUV
Chroma subsampling                       : 4:2:0
Bit depth                                : 8 bits
Scan type                                : Progressive
Compression mode                         : Lossy
Bits/(Pixel*Frame)                       : 0.152
Stream size                              : 322 MiB (88%)
Writing library                          : XviD 64

Audio
ID                                       : 1
Format                                   : MPEG Audio
Format version                           : Version 1
Format profile                           : Layer 3
Mode                                     : Joint stereo
Mode extension                           : MS Stereo
Codec ID                                 : 55
Codec ID/Hint                            : MP3
Duration                                 : 45mn 2s
Bit rate mode                            : Constant
Bit rate                                 : 128 Kbps
Channel(s)                               : 2 channels
Sampling rate                            : 48.0 KHz
Compression mode                         : Lossy
Stream size                              : 41.2 MiB (11%)
Alignment                                : Split accross interleaves
Interleave, duration                     : 33 ms (1.00 video frame)
Interleave, preload duration             : 500 ms

General
Complete name                            : C:\Users\Marc-Antoine\Downloads\SEED\Fortier\FORTIER.S2.05.avi
Format                                   : AVI
Format/Info                              : Audio Video Interleave
File size                                : 367 MiB
Duration                                 : 45mn 4s
Overall bit rate                         : 1 139 Kbps
Writing application                      : Lavf54.61.104
Writing library                          : VirtualDub build 32842/release

Video
ID                                       : 0
Format                                   : MPEG-4 Visual
Format profile                           : Simple@L3
Format settings, BVOP                    : No
Format settings, QPel                    : No
Format settings, GMC                     : No warppoints
Format settings, Matrix                  : Default (H.263)
Codec ID                                 : XVID
Codec ID/Hint                            : XviD
Duration                                 : 45mn 4s
Bit rate                                 : 1 000 Kbps
Width                                    : 624 pixels
Height                                   : 352 pixels
Display aspect ratio                     : 16:9
Frame rate                               : 29.970 fps
Color space                              : YUV
Chroma subsampling                       : 4:2:0
Bit depth                                : 8 bits
Scan type                                : Progressive
Compression mode                         : Lossy
Bits/(Pixel*Frame)                       : 0.152
Stream size                              : 322 MiB (88%)
Writing library                          : XviD 64

Audio
ID                                       : 1
Format                                   : MPEG Audio
Format version                           : Version 1
Format profile                           : Layer 3
Mode                                     : Joint stereo
Mode extension                           : MS Stereo
Codec ID                                 : 55
Codec ID/Hint                            : MP3
Duration                                 : 45mn 4s
Bit rate mode                            : Constant
Bit rate                                 : 128 Kbps
Channel(s)                               : 2 channels
Sampling rate                            : 48.0 KHz
Compression mode                         : Lossy
Stream size                              : 41.3 MiB (11%)
Alignment                                : Split accross interleaves
Interleave, duration                     : 33 ms (1.00 video frame)
Interleave, preload duration             : 500 ms

General
Complete name                            : C:\Users\Marc-Antoine\Downloads\SEED\Fortier\FORTIER.S2.06.avi
Format                                   : AVI
Format/Info                              : Audio Video Interleave
File size                                : 371 MiB
Duration                                 : 45mn 28s
Overall bit rate                         : 1 139 Kbps
Writing application                      : Lavf54.61.104
Writing library                          : VirtualDub build 32842/release

Video
ID                                       : 0
Format                                   : MPEG-4 Visual
Format profile                           : Simple@L3
Format settings, BVOP                    : No
Format settings, QPel                    : No
Format settings, GMC                     : No warppoints
Format settings, Matrix                  : Default (H.263)
Codec ID                                 : XVID
Codec ID/Hint                            : XviD
Duration                                 : 45mn 28s
Bit rate                                 : 1 000 Kbps
Width                                    : 624 pixels
Height                                   : 352 pixels
Display aspect ratio                     : 16:9
Frame rate                               : 29.970 fps
Color space                              : YUV
Chroma subsampling                       : 4:2:0
Bit depth                                : 8 bits
Scan type                                : Progressive
Compression mode                         : Lossy
Bits/(Pixel*Frame)                       : 0.152
Stream size                              : 325 MiB (88%)
Writing library                          : XviD 64

Audio
ID                                       : 1
Format                                   : MPEG Audio
Format version                           : Version 1
Format profile                           : Layer 3
Mode                                     : Joint stereo
Mode extension                           : MS Stereo
Codec ID                                 : 55
Codec ID/Hint                            : MP3
Duration                                 : 45mn 28s
Bit rate mode                            : Constant
Bit rate                                 : 128 Kbps
Channel(s)                               : 2 channels
Sampling rate                            : 48.0 KHz
Compression mode                         : Lossy
Stream size                              : 41.6 MiB (11%)
Alignment                                : Split accross interleaves
Interleave, duration                     : 33 ms (1.00 video frame)
Interleave, preload duration             : 500 ms

General
Complete name                            : C:\Users\Marc-Antoine\Downloads\SEED\Fortier\FORTIER.S2.07.avi
Format                                   : AVI
Format/Info                              : Audio Video Interleave
File size                                : 371 MiB
Duration                                 : 45mn 28s
Overall bit rate                         : 1 139 Kbps
Writing application                      : Lavf54.61.104
Writing library                          : VirtualDub build 32842/release

Video
ID                                       : 0
Format                                   : MPEG-4 Visual
Format profile                           : Simple@L3
Format settings, BVOP                    : No
Format settings, QPel                    : No
Format settings, GMC                     : No warppoints
Format settings, Matrix                  : Default (H.263)
Codec ID                                 : XVID
Codec ID/Hint                            : XviD
Duration                                 : 45mn 28s
Bit rate                                 : 1 000 Kbps
Width                                    : 624 pixels
Height                                   : 352 pixels
Display aspect ratio                     : 16:9
Frame rate                               : 29.970 fps
Color space                              : YUV
Chroma subsampling                       : 4:2:0
Bit depth                                : 8 bits
Scan type                                : Progressive
Compression mode                         : Lossy
Bits/(Pixel*Frame)                       : 0.152
Stream size                              : 325 MiB (88%)
Writing library                          : XviD 64

Audio
ID                                       : 1
Format                                   : MPEG Audio
Format version                           : Version 1
Format profile                           : Layer 3
Mode                                     : Joint stereo
Mode extension                           : MS Stereo
Codec ID                                 : 55
Codec ID/Hint                            : MP3
Duration                                 : 45mn 28s
Bit rate mode                            : Constant
Bit rate                                 : 128 Kbps
Channel(s)                               : 2 channels
Sampling rate                            : 48.0 KHz
Compression mode                         : Lossy
Stream size                              : 41.6 MiB (11%)
Alignment                                : Split accross interleaves
Interleave, duration                     : 33 ms (1.00 video frame)
Interleave, preload duration             : 500 ms

General
Complete name                            : C:\Users\Marc-Antoine\Downloads\SEED\Fortier\FORTIER.S2.08.FiNAL.avi
Format                                   : AVI
Format/Info                              : Audio Video Interleave
File size                                : 371 MiB
Duration                                 : 45mn 29s
Overall bit rate                         : 1 139 Kbps
Writing application                      : Lavf54.61.104
Writing library                          : VirtualDub build 32842/release

Video
ID                                       : 0
Format                                   : MPEG-4 Visual
Format profile                           : Simple@L3
Format settings, BVOP                    : No
Format settings, QPel                    : No
Format settings, GMC                     : No warppoints
Format settings, Matrix                  : Default (H.263)
Codec ID                                 : XVID
Codec ID/Hint                            : XviD
Duration                                 : 45mn 29s
Bit rate                                 : 1 000 Kbps
Width                                    : 624 pixels
Height                                   : 352 pixels
Display aspect ratio                     : 16:9
Frame rate                               : 29.970 fps
Color space                              : YUV
Chroma subsampling                       : 4:2:0
Bit depth                                : 8 bits
Scan type                                : Progressive
Compression mode                         : Lossy
Bits/(Pixel*Frame)                       : 0.152
Stream size                              : 325 MiB (88%)
Writing library                          : XviD 64

Audio
ID                                       : 1
Format                                   : MPEG Audio
Format version                           : Version 1
Format profile                           : Layer 3
Mode                                     : Joint stereo
Mode extension                           : MS Stereo
Codec ID                                 : 55
Codec ID/Hint                            : MP3
Duration                                 : 45mn 29s
Bit rate mode                            : Constant
Bit rate                                 : 128 Kbps
Channel(s)                               : 2 channels
Sampling rate                            : 48.0 KHz
Compression mode                         : Lossy
Stream size                              : 41.6 MiB (11%)
Alignment                                : Split accross interleaves
Interleave, duration                     : 33 ms (1.00 video frame)
Interleave, preload duration             : 500 ms

General
Complete name                            : C:\Users\Marc-Antoine\Downloads\SEED\Fortier\FORTIER.S3.01.avi
Format                                   : AVI
Format/Info                              : Audio Video Interleave
File size                                : 369 MiB
Duration                                 : 45mn 14s
Overall bit rate                         : 1 139 Kbps
Writing application                      : Lavf54.61.104
Writing library                          : VirtualDub build 32842/release

Video
ID                                       : 0
Format                                   : MPEG-4 Visual
Format profile                           : Simple@L3
Format settings, BVOP                    : No
Format settings, QPel                    : No
Format settings, GMC                     : No warppoints
Format settings, Matrix                  : Default (H.263)
Codec ID                                 : XVID
Codec ID/Hint                            : XviD
Duration                                 : 45mn 14s
Bit rate                                 : 1 000 Kbps
Width                                    : 624 pixels
Height                                   : 352 pixels
Display aspect ratio                     : 16:9
Frame rate                               : 29.970 fps
Color space                              : YUV
Chroma subsampling                       : 4:2:0
Bit depth                                : 8 bits
Scan type                                : Progressive
Compression mode                         : Lossy
Bits/(Pixel*Frame)                       : 0.152
Stream size                              : 323 MiB (88%)
Writing library                          : XviD 64

Audio
ID                                       : 1
Format                                   : MPEG Audio
Format version                           : Version 1
Format profile                           : Layer 3
Mode                                     : Joint stereo
Codec ID                                 : 55
Codec ID/Hint                            : MP3
Duration                                 : 45mn 14s
Bit rate mode                            : Constant
Bit rate                                 : 128 Kbps
Channel(s)                               : 2 channels
Sampling rate                            : 48.0 KHz
Compression mode                         : Lossy
Stream size                              : 41.4 MiB (11%)
Alignment                                : Split accross interleaves
Interleave, duration                     : 33 ms (1.00 video frame)
Interleave, preload duration             : 500 ms

General
Complete name                            : C:\Users\Marc-Antoine\Downloads\SEED\Fortier\FORTIER.S3.02.avi
Format                                   : AVI
Format/Info                              : Audio Video Interleave
File size                                : 369 MiB
Duration                                 : 45mn 14s
Overall bit rate                         : 1 139 Kbps
Writing application                      : Lavf54.61.104
Writing library                          : VirtualDub build 32842/release

Video
ID                                       : 0
Format                                   : MPEG-4 Visual
Format profile                           : Simple@L3
Format settings, BVOP                    : No
Format settings, QPel                    : No
Format settings, GMC                     : No warppoints
Format settings, Matrix                  : Default (H.263)
Codec ID                                 : XVID
Codec ID/Hint                            : XviD
Duration                                 : 45mn 14s
Bit rate                                 : 1 000 Kbps
Width                                    : 624 pixels
Height                                   : 352 pixels
Display aspect ratio                     : 16:9
Frame rate                               : 29.970 fps
Color space                              : YUV
Chroma subsampling                       : 4:2:0
Bit depth                                : 8 bits
Scan type                                : Progressive
Compression mode                         : Lossy
Bits/(Pixel*Frame)                       : 0.152
Stream size                              : 323 MiB (88%)
Writing library                          : XviD 64

Audio
ID                                       : 1
Format                                   : MPEG Audio
Format version                           : Version 1
Format profile                           : Layer 3
Mode                                     : Joint stereo
Mode extension                           : MS Stereo
Codec ID                                 : 55
Codec ID/Hint                            : MP3
Duration                                 : 45mn 14s
Bit rate mode                            : Constant
Bit rate                                 : 128 Kbps
Channel(s)                               : 2 channels
Sampling rate                            : 48.0 KHz
Compression mode                         : Lossy
Stream size                              : 41.4 MiB (11%)
Alignment                                : Split accross interleaves
Interleave, duration                     : 33 ms (1.00 video frame)
Interleave, preload duration             : 500 ms

General
Complete name                            : C:\Users\Marc-Antoine\Downloads\SEED\Fortier\FORTIER.S3.03.avi
Format                                   : AVI
Format/Info                              : Audio Video Interleave
File size                                : 369 MiB
Duration                                 : 45mn 15s
Overall bit rate                         : 1 139 Kbps
Writing application                      : Lavf54.61.104
Writing library                          : VirtualDub build 32842/release

Video
ID                                       : 0
Format                                   : MPEG-4 Visual
Format profile                           : Simple@L3
Format settings, BVOP                    : No
Format settings, QPel                    : No
Format settings, GMC                     : No warppoints
Format settings, Matrix                  : Default (H.263)
Codec ID                                 : XVID
Codec ID/Hint                            : XviD
Duration                                 : 45mn 15s
Bit rate                                 : 999 Kbps
Width                                    : 624 pixels
Height                                   : 352 pixels
Display aspect ratio                     : 16:9
Frame rate                               : 29.970 fps
Color space                              : YUV
Chroma subsampling                       : 4:2:0
Bit depth                                : 8 bits
Scan type                                : Progressive
Compression mode                         : Lossy
Bits/(Pixel*Frame)                       : 0.152
Stream size                              : 323 MiB (88%)
Writing library                          : XviD 64

Audio
ID                                       : 1
Format                                   : MPEG Audio
Format version                           : Version 1
Format profile                           : Layer 3
Mode                                     : Joint stereo
Mode extension                           : MS Stereo
Codec ID                                 : 55
Codec ID/Hint                            : MP3
Duration                                 : 45mn 15s
Bit rate mode                            : Constant
Bit rate                                 : 128 Kbps
Channel(s)                               : 2 channels
Sampling rate                            : 48.0 KHz
Compression mode                         : Lossy
Stream size                              : 41.4 MiB (11%)
Alignment                                : Split accross interleaves
Interleave, duration                     : 33 ms (1.00 video frame)
Interleave, preload duration             : 500 ms

General
Complete name                            : C:\Users\Marc-Antoine\Downloads\SEED\Fortier\FORTIER.S3.04.avi
Format                                   : AVI
Format/Info                              : Audio Video Interleave
File size                                : 369 MiB
Duration                                 : 45mn 14s
Overall bit rate                         : 1 139 Kbps
Writing application                      : Lavf54.61.104
Writing library                          : VirtualDub build 32842/release

Video
ID                                       : 0
Format                                   : MPEG-4 Visual
Format profile                           : Simple@L3
Format settings, BVOP                    : No
Format settings, QPel                    : No
Format settings, GMC                     : No warppoints
Format settings, Matrix                  : Default (H.263)
Codec ID                                 : XVID
Codec ID/Hint                            : XviD
Duration                                 : 45mn 14s
Bit rate                                 : 999 Kbps
Width                                    : 624 pixels
Height                                   : 352 pixels
Display aspect ratio                     : 16:9
Frame rate                               : 29.970 fps
Color space                              : YUV
Chroma subsampling                       : 4:2:0
Bit depth                                : 8 bits
Scan type                                : Progressive
Compression mode                         : Lossy
Bits/(Pixel*Frame)                       : 0.152
Stream size                              : 323 MiB (88%)
Writing library                          : XviD 64

Audio
ID                                       : 1
Format                                   : MPEG Audio
Format version                           : Version 1
Format profile                           : Layer 3
Mode                                     : Joint stereo
Mode extension                           : MS Stereo
Codec ID                                 : 55
Codec ID/Hint                            : MP3
Duration                                 : 45mn 14s
Bit rate mode                            : Constant
Bit rate                                 : 128 Kbps
Channel(s)                               : 2 channels
Sampling rate                            : 48.0 KHz
Compression mode                         : Lossy
Stream size                              : 41.4 MiB (11%)
Alignment                                : Split accross interleaves
Interleave, duration                     : 33 ms (1.00 video frame)
Interleave, preload duration             : 500 ms

General
Complete name                            : C:\Users\Marc-Antoine\Downloads\SEED\Fortier\FORTIER.S3.05.avi
Format                                   : AVI
Format/Info                              : Audio Video Interleave
File size                                : 355 MiB
Duration                                 : 45mn 13s
Overall bit rate                         : 1 097 Kbps
Writing application                      : Lavf54.61.104
Writing library                          : VirtualDub build 32842/release

Video
ID                                       : 0
Format                                   : MPEG-4 Visual
Format profile                           : Simple@L3
Format settings, BVOP                    : No
Format settings, QPel                    : No
Format settings, GMC                     : No warppoints
Format settings, Matrix                  : Default (H.263)
Codec ID                                 : XVID
Codec ID/Hint                            : XviD
Duration                                 : 45mn 13s
Bit rate                                 : 957 Kbps
Width                                    : 624 pixels
Height                                   : 352 pixels
Display aspect ratio                     : 16:9
Frame rate                               : 29.970 fps
Color space                              : YUV
Chroma subsampling                       : 4:2:0
Bit depth                                : 8 bits
Scan type                                : Progressive
Compression mode                         : Lossy
Bits/(Pixel*Frame)                       : 0.145
Stream size                              : 310 MiB (87%)
Writing library                          : XviD 64

Audio
ID                                       : 1
Format                                   : MPEG Audio
Format version                           : Version 1
Format profile                           : Layer 3
Mode                                     : Joint stereo
Mode extension                           : MS Stereo
Codec ID                                 : 55
Codec ID/Hint                            : MP3
Duration                                 : 45mn 13s
Bit rate mode                            : Constant
Bit rate                                 : 128 Kbps
Channel(s)                               : 2 channels
Sampling rate                            : 48.0 KHz
Compression mode                         : Lossy
Stream size                              : 41.4 MiB (12%)
Alignment                                : Split accross interleaves
Interleave, duration                     : 33 ms (1.00 video frame)
Interleave, preload duration             : 500 ms

General
Complete name                            : C:\Users\Marc-Antoine\Downloads\SEED\Fortier\FORTIER.S3.06.avi
Format                                   : AVI
Format/Info                              : Audio Video Interleave
File size                                : 368 MiB
Duration                                 : 45mn 13s
Overall bit rate                         : 1 139 Kbps
Writing application                      : Lavf54.61.104
Writing library                          : VirtualDub build 32842/release

Video
ID                                       : 0
Format                                   : MPEG-4 Visual
Format profile                           : Simple@L3
Format settings, BVOP                    : No
Format settings, QPel                    : No
Format settings, GMC                     : No warppoints
Format settings, Matrix                  : Default (H.263)
Codec ID                                 : XVID
Codec ID/Hint                            : XviD
Duration                                 : 45mn 13s
Bit rate                                 : 999 Kbps
Width                                    : 624 pixels
Height                                   : 352 pixels
Display aspect ratio                     : 16:9
Frame rate                               : 29.970 fps
Color space                              : YUV
Chroma subsampling                       : 4:2:0
Bit depth                                : 8 bits
Scan type                                : Progressive
Compression mode                         : Lossy
Bits/(Pixel*Frame)                       : 0.152
Stream size                              : 323 MiB (88%)
Writing library                          : XviD 64

Audio
ID                                       : 1
Format                                   : MPEG Audio
Format version                           : Version 1
Format profile                           : Layer 3
Mode                                     : Joint stereo
Mode extension                           : MS Stereo
Codec ID                                 : 55
Codec ID/Hint                            : MP3
Duration                                 : 45mn 13s
Bit rate mode                            : Constant
Bit rate                                 : 128 Kbps
Channel(s)                               : 2 channels
Sampling rate                            : 48.0 KHz
Compression mode                         : Lossy
Stream size                              : 41.4 MiB (11%)
Alignment                                : Split accross interleaves
Interleave, duration                     : 33 ms (1.00 video frame)
Interleave, preload duration             : 500 ms

General
Complete name                            : C:\Users\Marc-Antoine\Downloads\SEED\Fortier\FORTIER.S3.07.avi
Format                                   

TÉLÉCHARGER "Fortier SÉRIE COMPLÈTE Saisons 1-5" 20x PLUS VITE AVEC USENET
Anonyme&Rapide – 14 jours gratuits

Ajouter un commentaire

1 - 20 | 21 - 21
clairebor ↑ 121.14 GB ↓ 85.57 GB Ratio: 1,41

Merci ! Je ne connaissais pas cette série québécoise, la thématique est alléchante. Elle ressemble à la série française "Profilage", qui serait son adaptation française ? Allez hop, je télécharge les 5 saisons d'un coup !

pestfreeca ↑ 5.62 GB ↓ 7.15 GB Ratio: 0,78

Oui twilightone je serais intéressé!

twilightone ↑ 127.61 GB ↓ 78.44 GB Ratio: 1,62

Merci beaucoup!

Je suis tombé sur les fichiers entiers des DVD des saisons 1 à 5 et je songe à les rendre disponibles, étant donné qu'il n'est pas possible de se les procurer ailleurs. Les fichiers au total montent à environ 100Go.

Seriez-vous intéressés?

Dernière édition par twilightone le 2014-04-19 00:12:47

debojacob ↑ 186.9 GB ↓ 226.47 GB Ratio: 0,82

Milles merci !!!! Cette série est superbe xx

gartempe ↑ 479.4 GB ↓ 605.35 GB Ratio: 0,79

DES MILLIONS DE MERCIS

J'ai suivi cette série, dés 6h du mat', quand elle est passée sur TMC, au siècle dernier, & n'arrivait pas à m'en décrocher.

Aujourd'hui, grâce à toi, la piqûre de rappel sera tout aussi intense.

Merci beaucoup, beaucoup

MisterLupin

oh gracias senor

Si t'aimes pas se que j'écris ben tant pis pour toi

treasure83 ↑ 59.87 GB ↓ 23.56 GB Ratio: 2,54

yeah j'attend ce moment depuis longtemps!!! je me souviens pas de grand chose, ce sera merveilleux!! merci!

papinanard ↑ 1.52 TB ↓ 1.16 TB Ratio: 1,30

je vais enfin faire plaisir à ma femme qui me réclame les "Fortier" depuis des mois
tu me sauves mon weekend

merci pour le travail

ftrudel ↑ 54.06 GB ↓ 72.99 GB Ratio: 0,74

Great merci beaucoup!!! Ma blonde est encore plus heureuse loll

cataclop17 ↑ 170.42 GB ↓ 227.38 GB Ratio: 0,74

Cool! J'en avais raté pas mal ayant découvert cette série en retard donc j'apprécie ce travail!
Un grand merci pour une série trop mal connue.

shaonya ↑ 26.61 TB ↓ 2.84 TB Ratio: 9,38

Connais pas alors je download pour voir et surement apprécier

davsophie How will History remember us? ↑ 22.64 TB ↓ 893.94 GB Ratio: 25,93

Torrent Ok!
Merci pour ta participation! Bon download aux autres.
N'oubliez pas de remercier! Les uploadeurs travaillent pour vous et assurent ainsi la diversité des fichiers sur t411.
Un merci, un commentaire et rester en seed, ça fait plaisir à l'uploader.

bouba89 le panda de 411

NFO incorrect:
Il manque des informations dans le NFO.
Clique sur ce lien pour accéder à la section dédiée.

merci de reduire votre NFO : ne prenez qu'un seul épisode pour afficher les infos principal

preacher860 ↑ 109.75 GB ↓ 76.01 GB Ratio: 1,44

Wow merci d'avoir pris le temps d'assembler tout ça, ce sera un plaisir de revoir cette excellente série

raphael99 ↑ 36.82 GB ↓ 49.61 GB Ratio: 0,74

merci bcp pour cette série

morena20 ↑ 251.95 GB ↓ 231.13 GB Ratio: 1,09

wow !!
merci pour cette belle recherche et surtout de ton temps

liliane62 ↑ 1.18 TB ↓ 515.46 GB Ratio: 2,35

merci pour le partage

twilightone ↑ 127.61 GB ↓ 78.44 GB Ratio: 1,62

Ouais, j'ai perdu l'accès alors que j'étais hors de la maison... J'ai réglé la situation maintenant!

Mousemonth ↑ 2.4 TB ↓ 3.01 TB Ratio: 0,79

Il n'y a plus de source....

twilightone ↑ 127.61 GB ↓ 78.44 GB Ratio: 1,62

Content de voir que ça plaise! Comme c'est mon premier torrent, je ne savais pas trop à quoi m'attendre... Tant mieux, c'est positif!

1 - 20 | 21 - 21
Télécharger "Fortier SÉRIE COMPLÈTE Saisons 1-5" en illimité a une vitesse de 1000 kbps grïâce aux 14 Jours d'essai gratuit offerts par Usenet.nl!
 
Loading...