Game of Thrones S03E06.FASTSUB.VOSTFR.HDTV.XviD.avi URL Raccourcie

Télécharger "Game of Thrones S03E06.FASTSUB.VOSTFR.HDTV.XviD.avi" en illimité a une vitesse de 1000 kbps grïâce aux 14 Jours d'essai gratuit offerts par Usenet.nl!
( ¯`·._.·[ Game of Thrones ]·._.·´¯ )
S03 E06 VOSTFR








Titre original : Game of Thrones
Origine de la serie : Américaine
Statut : En production
Réalisateur : David Benioff
Acteurs : Jack Gleeson, Nikolaj Coster-Waldau, Kit Harington
Genre : Fantastique
Note : 4.7

Bande annonce : Voir la bande-annonce



Il y a très longtemps, à une époque oubliée, une force a détruit l'équilibre des saisons. Dans un pays où l'été peut durer plusieurs années et l'hiver toute une vie, des forces sinistres et surnaturelles se pressent aux portes du Royaume des Sept Couronnes. La confrérie de la Garde de Nuit, protégeant le Royaume de toute créature pouvant provenir d'au-delà du Mur protecteur, n'a plus les ressources nécessaires pour assurer la sécurité de tous. Après un été de dix années, un hiver rigoureux s'abat sur le Royaume avec la promesse d'un avenir des plus sombres. Pendant ce temps, complots et rivalités se jouent sur le continent pour s'emparer du Trône de Fer, le symbole du pouvoir absolu.





Hébergeur : T411
Qualité : TVrip
Format : AVI
Langue :
Sous-titre :
Découper avec : Aucun
Bitrate Audio : 128 Kbps / MP3
Bitrate Video : 1259 Kbps / MP4 XviD


.:: Release ::.

G3E06.FASTSUB.VOSTFR.HDTV.XviD.avi

Nombre et taille des fichiers : 1 X 551 Mo

Total du post : 551 Mo


Mes autres uploads ici





↓↓↓ Game of Thrones S03E06.FASTSUB.VOSTFR.HDTV.XviD.avi ↓↓↓
 

www.usenet.nl

Seeders 185 Leechers 0 Téléchargements 35006
 
Télécharger Dire merci! Signaler
Voir la liste des membres qui vous remercient
↑↑↑ Game of Thrones S03E06.FASTSUB.VOSTFR.HDTV.XviD.avi ↑↑↑

Informations

Nom Game of Thrones S03E06.FASTSUB.VOSTFR.HDTV.XviD.avi
Torrent G3E06.FASTSUB.VOSTFR.HDTV.XviD.avi.torrent
Catégorie Série TV
Taille totale 550.74 MB
Info Hash 434e8c0c0dc0f788a905da74a677daaaf5e2f08a
Uploadé par poiz
Uploadé le 2013-05-06 10:15:54 (+00:00)
Visites 43675
évaluation 4.8/5 (294 votes)

Liste des Fichiers

Path Size
G3E06.FASTSUB.VOSTFR.HDTV.XviD.avi 550.74 MB

Voir le NFO

General
Complete name                            : C:\Users\Poizon\Downloads\G3E06.FASTSUB.VOSTFR.HDTV.XviD.avi
Format                                   : AVI
Format/Info                              : Audio Video Interleave
File size                                : 551 MiB
Duration                                 : 55mn 0s
Overall bit rate                         : 1 400 Kbps
Writing application                      : MEncoder SVN-r36038-4.7
Writing library                          : MPlayer

Video
ID                                       : 0
Format                                   : MPEG-4 Visual
Format profile                           : Advanced Simple@L5
Format settings, BVOP                    : 2
Format settings, QPel                    : No
Format settings, GMC                     : No warppoints
Format settings, Matrix                  : Default (H.263)
Codec ID                                 : XVID
Codec ID/Hint                            : XviD
Duration                                 : 54mn 59s
Bit rate                                 : 1 259 Kbps
Width                                    : 720 pixels
Height                                   : 404 pixels
Display aspect ratio                     : 16:9
Original display aspect ratio            : 16:9
Frame rate                               : 23.976 fps
Color space                              : YUV
Chroma subsampling                       : 4:2:0
Bit depth                                : 8 bits
Scan type                                : Progressive
Compression mode                         : Lossy
Bits/(Pixel*Frame)                       : 0.181
Stream size                              : 495 MiB (90%)
Writing library                          : XviD 64

Audio
ID                                       : 1
Format                                   : MPEG Audio
Format version                           : Version 1
Format profile                           : Layer 3
Mode                                     : Joint stereo
Mode extension                           : MS Stereo
Codec ID                                 : 55
Codec ID/Hint                            : MP3
Duration                                 : 55mn 0s
Bit rate mode                            : Constant
Bit rate                                 : 128 Kbps
Channel(s)                               : 2 channels
Sampling rate                            : 48.0 KHz
Compression mode                         : Lossy
Delay relative to video                  : 42ms
Stream size                              : 50.4 MiB (9%)
Alignment                                : Aligned on interleaves
Interleave, duration                     : 24 ms (0.58 video frame)
Interleave, preload duration             : 504 ms

TÉLÉCHARGER "Game of Thrones S03E06.FASTSUB.VOSTFR.HDTV.XviD.avi" 20x PLUS VITE AVEC USENET
Anonyme&Rapide – 14 jours gratuits

Ajouter un commentaire

1 - 20 | 21 - 40 | 41 - 60 | 61 - 80 | 81 - 88
lacastafiore ↑ 209.68 GB ↓ 281.3 GB Ratio: 0,74

Merci ! J'adore cette série!

Jukeb0x ↑ 33.42 GB ↓ 12.06 GB Ratio: 2,77

Thanks! Danke! Gracias! y tutti quanti

wagramboy ↑ 152.51 GB ↓ 126.97 GB Ratio: 1,20

merci cette série est fantastique

andada ↑ 32.14 GB ↓ 8.18 GB Ratio: 3,93

ceci est très gentil

andada ↑ 32.14 GB ↓ 8.18 GB Ratio: 3,93

ceci est très gentil

andada ↑ 32.14 GB ↓ 8.18 GB Ratio: 3,93

ceci est très gentil

andada ↑ 32.14 GB ↓ 8.18 GB Ratio: 3,93

ceci est très gentil

andada ↑ 32.14 GB ↓ 8.18 GB Ratio: 3,93

ceci est très gentil

andada ↑ 32.14 GB ↓ 8.18 GB Ratio: 3,93

ceci est très gentil

twilight01 ↑ 897.99 GB ↓ 342.61 GB Ratio: 2,62

merci beaucoup

assamay ↑ 735.41 GB ↓ 414.76 GB Ratio: 1,77

merci pour le partage....

destraker ↑ 1.12 TB ↓ 571.12 GB Ratio: 1,99

genial j'adore, trop la classe

slamjack911 ↑ 227.29 GB ↓ 120.46 GB Ratio: 1,88

Tout est niquel, merci !

patmoon ↑ 514.03 GB ↓ 602.46 GB Ratio: 0,85

good job !!!

fredo92883 ↑ 1.12 TB ↓ 598.18 GB Ratio: 1,92

super merci encore pour le partage

Naya21 ↑ 1.47 TB ↓ 735.01 GB Ratio: 2,04

barbytrucks

Merci pour l'épisode. Par contre je confirme, il y avait bien des "erreurs" dans les sous-titres au moment ou je l'ai téléchargé. "Sing me a song" traduit par "baise-moi", sans être un bisounours je pense que ce n'était pas le dialogue d'origine! Et il n'y avait pas que ça. si c'est corrigé tant mieux.

saintsaens ↑ 871.46 GB ↓ 623.78 GB Ratio: 1,39

un grand merci!!

jeanlouloude ↑ 1.11 TB ↓ 1.39 TB Ratio: 0,79

Merci beaucoup pour cette épisode, il est canon !
Image, son et sous-titres impeccables.

kami93 ↑ 273.99 GB ↓ 234.16 GB Ratio: 1,17

Il y a certainement eu des corrections apportées, les gens qui ont remonté cette information sur les subs n'ont pas halluciné hein. Tant mieux alors si c'est corrigé.

1 - 20 | 21 - 40 | 41 - 60 | 61 - 80 | 81 - 88
Télécharger "Game of Thrones S03E06.FASTSUB.VOSTFR.HDTV.XviD.avi" en illimité a une vitesse de 1000 kbps grïâce aux 14 Jours d'essai gratuit offerts par Usenet.nl!
 
Loading...