Johnny Hallyday Bercy 2013 + Théâtre De Paris DVD URL Raccourcie

Télécharger "Johnny Hallyday Bercy 2013 + Théâtre De Paris DVD" en illimité a une vitesse de 1000 kbps grïâce aux 14 Jours d'essai gratuit offerts par Usenet.nl!




Les deux concerts anniversaire des 70 ans de Johnny réunis en un DVD.





Dans la salle du Palais omnisport de Paris-Bercy, en guise de bougies sur le gâteau, des bracelets lumineux, aux scintillements rouges et blancs, ont été remis aux spectateurs qui entonnent à plusieurs "joyeux anniversaire". Sur scène, les invités défilent : Amel Bent, Florent Pagny, Charles Aznavour, David Hallyday, Eddy Mitchell... Tous célèbrent les 70 ans de Johnny Hallyday, né le 15 juin 1943, à Paris, qui donne, samedi 15 juin, dans la grande salle parisienne le deuxième des trois concerts dans la capitale, du Born Rocker Tour (la tournée du rocker-né débuté le 2 juin après une tournée en 2012. Plus tard dans la nuit, la fête d'anniversaire continuera avec un concert privé organisé au Théâtre de Paris.

Le chanteur affiche forme et assurance. Il tombe à genoux, se couche, se relève durant Deux étrangers, chanson rock-soul qui rappelle qu'Hallyday avait bien observé James Brown ou Otis Redding dans les années 1960. Il se déhanche, une jambe en avant, sur les thèmes aux tempos plus marqués, fait de la grande scène un terrain de jeu à arpenter, vient au contact des musiciens.
La voix est moins convaincante, en tout cas dans la première heure du spectacle. Si les chansons comme Allumer le feu, Ma gueule ou Gabrielle avec leur côté hymne, appellent le recours à la force vocale, Hallyday aborde les ballades sur un registre similaire qui ne cadre pas. Sans nuances, dans le débordement.

A deux reprises, un ensemble de cordes avec quelques vents viendra se joindre au groupe, sans apporter grand chose en dehors de souligner l'emphase. C'est sur les chansons les plus faibles du répertoire (Diego, Sur ma vie, L'Attente, 20 ans...) que sont conviés violons et violoncelles. L'ennui commence à s'installer. Heureusement arrive un intermède où les trois choristes chantent Respect, d'Otis Redding. Le groupe, excellent, y trouve enfin de quoi s'emballer : section de cuivres, deux claviers (Frédéric Scamps et Alain Lanty), Fred Gimenez à la basse et Geoff Dugmore à la batterie, Robin Le Mesurier et Yarol Poupaud aux guitares, Greg Zlap à l'harmonica.

Et comme souvent avec Hallyday, c'est sur les thèmes en lien avec ses émois fondateurs pour la musique américaine, rock de l'âge d'or, blues et country, que le chanteur se révèle le plus convaincant. Cela passe par Joue pas du rock'n'roll, Toute la musique que j'aime, en duo avec Eddy Mitchell – dommage que Dick Rivers n'ait pas été convié – ou Fils de personne (adaptation bien dans l'esprit du Fortunate Son de Creedence Clearwater Revival). Cela passe aussi par un retour vers la décennie de ses vingt ans, avec Laisse les filles, Si j'étais un charpentier (adaptation par Long Chris, en 1966, d'If I Were A Carpenter de Tim Hardin) ou Tes tendres années. Seul à la guitare sur cette romance country, qui a été pour lui un succès en 1963, adaptation de Tender Years de Darrell Edwards, Hallyday retrouve sa part de crooner, sans effet poussé dans la voix.


Plus tard au Théâtre de Paris, en petit comité, Hallyday affirme encore cet ancrage américain. Pour assister, vers 1 heure du matin, au deuxième concert anniversaire, il fallait être l'un des six cents membres du site Venteprivée.com, gestionnaire de la salle, qui ont pu acheter un billet ou être sur la liste des invités (famille, amis, personnalités du spectacle...) du chanteur. Pas d'accès au médias, a précisé le service de presse, en dehors des partenaires pour ce concert retransmis sur les sites Internet de TF1 et RTL. C'est donc devant un écran d'ordinateur que l'on passa environ une heure (à 2 h 13 le "live est terminé" indique un message) à retrouver le goût pour Hallyday.
Evocation d'Elvis Presley (Lawdy Miss Clawdy, de Lloyd Price), classiques rock'n'roll (Blue Suede Shoes, Be Bop A Lula, Twenty Flight Rock...), interprétations tenues et serrées de La Terre promise (excellente adaptation par Michel Mallory du Promised Land de Chuck Berry ) ou Né dans le bayou (Creedence Clearwater Revival à nouveau adapté... Brian Setzer, des Stray Cats, en apôtre du revival rock, rejoint Hallyday. Le groupe balance Voyage au pays des vivants, grande dinguerie psychédélique avant de filer vers Le Bon Vieux temps du rock'n'roll. Et fait oublier que quelques heures plus tôt on subissait Je te promets, Marie, Quelque chose de Tennessee, Diego, L'Attente et autres L'Amour à mort.

Sylvain Siclier



↓↓↓ Johnny Hallyday Bercy 2013 + Théâtre De Paris DVD ↓↓↓
 

www.usenet.nl

Seeders 15 Leechers 0 Téléchargements 883
 
Télécharger Dire merci! Signaler
Voir la liste des membres qui vous remercient
↑↑↑ Johnny Hallyday Bercy 2013 + Théâtre De Paris DVD ↑↑↑

Informations

Nom Johnny Hallyday Bercy 2013 + Théâtre De Paris DVD
Torrent Johnny Hallyday Bercy 2013 + Théâtre De Paris.torrent
Catégorie Concert
Taille totale 4.02 GB
Info Hash ceb40dbeb77322fa71dd9c39a44eb8768668dce0
Uploadé par JCLJCL
Uploadé le 2013-07-20 19:45:33 (+00:00)
Visites 1698
évaluation 4.4/5 (21 votes)

Liste des Fichiers

Path Size
Johnny Hallyday Bercy 2013 + Théâtre De Paris/VIDEO_TS/VTS_01_1.VOB 1023.83 MB
Johnny Hallyday Bercy 2013 + Théâtre De Paris/VIDEO_TS/VTS_01_2.VOB 1023.83 MB
Johnny Hallyday Bercy 2013 + Théâtre De Paris/VIDEO_TS/VTS_01_3.VOB 1023.83 MB
Johnny Hallyday Bercy 2013 + Théâtre De Paris/VIDEO_TS/VTS_01_4.VOB 1023.83 MB
Johnny Hallyday Bercy 2013 + Théâtre De Paris/VIDEO_TS/VTS_01_5.VOB 21.57 MB
Johnny Hallyday Bercy 2013 + Théâtre De Paris/VIDEO_TS/VTS_01_0.BUP 94 KB
Johnny Hallyday Bercy 2013 + Théâtre De Paris/VIDEO_TS/VTS_01_0.IFO 94 KB
Johnny Hallyday Bercy 2013 + Théâtre De Paris/VIDEO_TS/VIDEO_TS.BUP 8 KB
Johnny Hallyday Bercy 2013 + Théâtre De Paris/VIDEO_TS/VIDEO_TS.IFO 8 KB

Voir le NFO

General
General

Complete name                            : Johnny Hallyday Bercy 2013 + Théâtre De Paris\VIDEO_TS\VTS_01_1.VOB
Format                                   : MPEG-PS
File size                                : 1 024 MiB
Duration                                 : 49mn 9s
Overall bit rate mode                    : Variable
Overall bit rate                         : 2 912 Kbps
Writing library                          : encoded by TMPGEnc Authoring Works 4 Version. 4.0.11.39

Video
ID                                       : 224 (0xE0)
Format                                   : MPEG Video
Format version                           : Version 2
Format profile                           : Main@Main
Format settings, BVOP                    : Yes
Format settings, Matrix                  : Custom
Format settings, GOP                     : Variable
Duration                                 : 49mn 9s
Bit rate mode                            : Variable
Bit rate                                 : 2 630 Kbps
Maximum bit rate                         : 3 766 Kbps
Width                                    : 720 pixels
Height                                   : 576 pixels
Display aspect ratio                     : 16:9
Frame rate                               : 25.000 fps
Standard                                 : PAL
Color space                              : YUV
Chroma subsampling                       : 4:2:0
Bit depth                                : 8 bits
Scan type                                : Progressive
Compression mode                         : Lossy
Bits/(Pixel*Frame)                       : 0.254
Stream size                              : 925 MiB (90%)
Alignment                                : encoded by TMPGEnc Authoring Works 4 Version. 4.0.11.39
Title                                    : TMPGEnc
Writing application                      : Authoring Works 4 Version. 4.0.11.39
Writing library                          : TMPGEnc Authoring Works 4 Version. 4.0.11.39
Color primaries                          : BT.601 PAL
Transfer characteristics                 : BT.470 System B, BT.470 System G
Matrix coefficients                      : BT.601

Audio
ID                                       : 189 (0xBD)-128 (0x80)
Format                                   : AC-3
Format/Info                              : Audio Coding 3
Mode extension                           : CM (complete main)
Format settings, Endianness              : Big
Muxing mode                              : DVD-Video
Duration                                 : 49mn 9s
Bit rate mode                            : Constant
Bit rate                                 : 224 Kbps
Channel(s)                               : 2 channels
Channel positions                        : Front: L R
Sampling rate                            : 48.0 KHz
Bit depth                                : 16 bits
Compression mode                         : Lossy
Stream size                              : 78.7 MiB (8%)

Menu

General
Complete name                            : Johnny Hallyday Bercy 2013 + Théâtre De Paris\VIDEO_TS\VTS_01_2.VOB
Format                                   : MPEG-PS
File size                                : 1 024 MiB
Duration                                 : 48mn 6s
Overall bit rate mode                    : Variable
Overall bit rate                         : 2 976 Kbps

Video
ID                                       : 224 (0xE0)
Format                                   : MPEG Video
Format version                           : Version 2
Format profile                           : Main@Main
Format settings, BVOP                    : Yes
Format settings, Matrix                  : Custom
Format settings, GOP                     : Variable
Duration                                 : 48mn 5s
Bit rate mode                            : Variable
Bit rate                                 : 2 693 Kbps
Maximum bit rate                         : 3 766 Kbps
Width                                    : 720 pixels
Height                                   : 576 pixels
Display aspect ratio                     : 16:9
Frame rate                               : 25.000 fps
Standard                                 : PAL
Color space                              : YUV
Chroma subsampling                       : 4:2:0
Bit depth                                : 8 bits
Scan type                                : Progressive
Compression mode                         : Lossy
Bits/(Pixel*Frame)                       : 0.260
Stream size                              : 926 MiB (90%)
Color primaries                          : BT.601 PAL
Transfer characteristics                 : BT.470 System B, BT.470 System G
Matrix coefficients                      : BT.601

Audio
ID                                       : 189 (0xBD)-128 (0x80)
Format                                   : AC-3
Format/Info                              : Audio Coding 3
Mode extension                           : CM (complete main)
Format settings, Endianness              : Big
Muxing mode                              : DVD-Video
Duration                                 : 48mn 6s
Bit rate mode                            : Constant
Bit rate                                 : 224 Kbps
Channel(s)                               : 2 channels
Channel positions                        : Front: L R
Sampling rate                            : 48.0 KHz
Bit depth                                : 16 bits
Compression mode                         : Lossy
Delay relative to video                  : -624ms
Stream size                              : 77.1 MiB (8%)

Menu

General
Complete name                            : Johnny Hallyday Bercy 2013 + Théâtre De Paris\VIDEO_TS\VTS_01_3.VOB
Format                                   : MPEG-PS
File size                                : 1 024 MiB
Duration                                 : 48mn 58s
Overall bit rate mode                    : Variable
Overall bit rate                         : 2 923 Kbps

Video
ID                                       : 224 (0xE0)
Format                                   : MPEG Video
Format version                           : Version 2
Format profile                           : Main@Main
Format settings, BVOP                    : Yes
Format settings, Matrix                  : Custom
Format settings, GOP                     : Variable
Duration                                 : 48mn 58s
Bit rate mode                            : Variable
Bit rate                                 : 2 641 Kbps
Maximum bit rate                         : 3 766 Kbps
Width                                    : 720 pixels
Height                                   : 576 pixels
Display aspect ratio                     : 16:9
Frame rate                               : 25.000 fps
Standard                                 : PAL
Color space                              : YUV
Chroma subsampling                       : 4:2:0
Bit depth                                : 8 bits
Scan type                                : Progressive
Compression mode                         : Lossy
Bits/(Pixel*Frame)                       : 0.255
Stream size                              : 925 MiB (90%)
Color primaries                          : BT.601 PAL
Transfer characteristics                 : BT.470 System B, BT.470 System G
Matrix coefficients                      : BT.601

Audio
ID                                       : 189 (0xBD)-128 (0x80)
Format                                   : AC-3
Format/Info                              : Audio Coding 3
Mode extension                           : CM (complete main)
Format settings, Endianness              : Big
Muxing mode                              : DVD-Video
Duration                                 : 48mn 58s
Bit rate mode                            : Constant
Bit rate                                 : 224 Kbps
Channel(s)                               : 2 channels
Channel positions                        : Front: L R
Sampling rate                            : 48.0 KHz
Bit depth                                : 16 bits
Compression mode                         : Lossy
Delay relative to video                  : -736ms
Stream size                              : 78.5 MiB (8%)

Menu

General
Complete name                            : Johnny Hallyday Bercy 2013 + Théâtre De Paris\VIDEO_TS\VTS_01_4.VOB
Format                                   : MPEG-PS
File size                                : 1 024 MiB
Duration                                 : 47mn 47s
Overall bit rate mode                    : Variable
Overall bit rate                         : 2 995 Kbps

Video
ID                                       : 224 (0xE0)
Format                                   : MPEG Video
Format version                           : Version 2
Format profile                           : Main@Main
Format settings, BVOP                    : Yes
Format settings, Matrix                  : Custom
Format settings, GOP                     : Variable
Duration                                 : 47mn 47s
Bit rate mode                            : Variable
Bit rate                                 : 2 712 Kbps
Maximum bit rate                         : 3 766 Kbps
Width                                    : 720 pixels
Height                                   : 576 pixels
Display aspect ratio                     : 16:9
Frame rate                               : 25.000 fps
Standard                                 : PAL
Color space                              : YUV
Chroma subsampling                       : 4:2:0
Bit depth                                : 8 bits
Scan type                                : Progressive
Compression mode                         : Lossy
Bits/(Pixel*Frame)                       : 0.262
Stream size                              : 927 MiB (91%)
Color primaries                          : BT.601 PAL
Transfer characteristics                 : BT.470 System B, BT.470 System G
Matrix coefficients                      : BT.601

Audio
ID                                       : 189 (0xBD)-128 (0x80)
Format                                   : AC-3
Format/Info                              : Audio Coding 3
Mode extension                           : CM (complete main)
Format settings, Endianness              : Big
Muxing mode                              : DVD-Video
Duration                                 : 47mn 47s
Bit rate mode                            : Constant
Bit rate                                 : 224 Kbps
Channel(s)                               : 2 channels
Channel positions                        : Front: L R
Sampling rate                            : 48.0 KHz
Bit depth                                : 16 bits
Compression mode                         : Lossy
Delay relative to video                  : -472ms
Stream size                              : 76.6 MiB (7%)

Menu

General
Complete name                            : Johnny Hallyday Bercy 2013 + Théâtre De Paris\VIDEO_TS\VTS_01_5.VOB
Format                                   : MPEG-PS
File size                                : 21.6 MiB
Duration                                 : 1mn 3s
Overall bit rate mode                    : Variable
Overall bit rate                         : 2 872 Kbps

Video
ID                                       : 224 (0xE0)
Format                                   : MPEG Video
Format version                           : Version 2
Format profile                           : Main@Main
Format settings, BVOP                    : Yes
Format settings, Matrix                  : Custom
Format settings, GOP                     : Variable
Duration                                 : 1mn 2s
Bit rate mode                            : Variable
Bit rate                                 : 2 590 Kbps
Maximum bit rate                         : 3 766 Kbps
Width                                    : 720 pixels
Height                                   : 576 pixels
Display aspect ratio                     : 16:9
Frame rate                               : 25.000 fps
Standard                                 : PAL
Color space                              : YUV
Chroma subsampling                       : 4:2:0
Bit depth                                : 8 bits
Scan type                                : Progressive
Compression mode                         : Lossy
Bits/(Pixel*Frame)                       : 0.250
Stream size                              : 19.3 MiB (90%)
Color primaries                          : BT.601 PAL
Transfer characteristics                 : BT.470 System B, BT.470 System G
Matrix coefficients                      : BT.601

Audio
ID                                       : 189 (0xBD)-128 (0x80)
Format                                   : AC-3
Format/Info                              : Audio Coding 3
Mode extension                           : CM (complete main)
Format settings, Endianness              : Big
Muxing mode                              : DVD-Video
Duration                                 : 1mn 3s
Bit rate mode                            : Constant
Bit rate                                 : 224 Kbps
Channel(s)                               : 2 channels
Channel positions                        : Front: L R
Sampling rate                            : 48.0 KHz
Bit depth                                : 16 bits
Compression mode                         : Lossy
Delay relative to video                  : -504ms
Stream size                              : 1.68 MiB (8%)

Menu

TÉLÉCHARGER "Johnny Hallyday Bercy 2013 + Théâtre De Paris DVD" 20x PLUS VITE AVEC USENET
Anonyme&Rapide – 14 jours gratuits

Ajouter un commentaire

1 - 20 | 21 - 21
IRIS22 ↑ 982.02 GB ↓ 788.45 GB Ratio: 1,24

Bonjour !!!!!!! J'ai dû faire une bétise... je n'arrive pas à l'ouvrir il n'y a que 4 fichiers Videos TS....... HELP !!!!!!!!!!!!!

danfactor5 ↑ 61.08 GB ↓ 81.54 GB Ratio: 0,74

un très grand merci

mariejosemaro04 ↑ 30.04 GB ↓ 0 B Ratio: Inf.

merci beaucoup

ShqK

ah ok merci et oui c'est clair ca serait cool !!

clariel ↑ 533.67 GB ↓ 530.65 GB Ratio: 1,00

oui, mais la version pris a la tv en juin.. et non le dvd sortis en décembre..ca serais une bonne idée de mettre le dvd Born rocker tour ici ..

ShqK

Merci pour le partage ! c'est bien le "Born Rocker Tour" ?

guy9939 ↑ 1.24 TB ↓ 1.57 TB Ratio: 0,78

Merci !!!
Très bien !!!
Rapide !!!

neigang ↑ 136.24 GB ↓ 65.53 GB Ratio: 2,07

Merci, c'est super , je recherchais le concert depuis pas mal de jours .... Un GRAND MERCI .

claude0207 Pendingo ergo sum ↑ 1.88 TB ↓ 362.71 GB Ratio: 5,30

Correction Team Pending: L'erreur suivante a été rectifiée par un membre de la Team Pending : " Image trop large "
Lors de ton prochain upload, merci de bien vouloir faire attention aux règles d'upload.

- La présentation doit contenir au moins 1 image et 5 maximum.

- La dimension d'une image sera :
Pour la largeur, de 200px minimum à 500px maximum.
Pour la hauteur, de 260px minimum à 800px maximum.

Ton image faisait 720x328 pxl ce qui est trop large

ringodu21 ↑ 30.19 GB ↓ 12.9 GB Ratio: 2,34

Merci pour se concert

logcrymel ↑ 884.7 GB ↓ 977.65 GB Ratio: 0,90

super concert et merci beaucoup

MOULOUD31 ↑ 70.63 GB ↓ 65.38 GB Ratio: 1,08

"VOUS ETES GENIAL !!!"   Johnny Hallyday BERCY 2013...

lolo0022 ↑ 409.89 GB ↓ 545.34 GB Ratio: 0,75

un grand merci

mickael1000 ↑ 219.59 GB ↓ 130.17 GB Ratio: 1,68

Du play back ? Pas si sûr, je l'ai vu à Saint-Etienne, et c'était bien du direct. Y compris son bonjour Clermont!
Du grand Johnny comme toujours, et comme le dis si bien Basilou 1, il n'a plus rien à prouver, c'est juste le "King" français.
Merci pour ce partage.

andy1960 ↑ 4.55 TB ↓ 341.8 GB Ratio: 13,63

rien a redire, qualité extra ! Un grand merci

guymusic ↑ 1.21 TB ↓ 278.78 GB Ratio: 4,43

Un grand merci pour les fans de Johnny, super qualité DVD

zebulon3615 ↑ 842.16 GB ↓ 311.08 GB Ratio: 2,70

Merci pour ce partage.

letemps000

qui c est Johnny Hallyday?????
encore un navet!!de plus?

basilou1 ↑ 1.35 TB ↓ 581.62 GB Ratio: 2,37

Merci pour ce post...
A roro747 je te souhaite d'avoir la même carrière que celle de Johnny mais peut être n'es tu pas assez "pitoyable" comme tu le dis si bien.

Roro747 ↑ 476.4 GB ↓ 291.82 GB Ratio: 1,63

Aque coucou
ps: il parrait qua un moment du spectacle et non concert car playback (mdr) il simule faire lamour a sa guitare Oo pitoyable jojo

Dernière édition par Roro747 le 2013-07-21 02:24:30

1 - 20 | 21 - 21
Télécharger "Johnny Hallyday Bercy 2013 + Théâtre De Paris DVD" en illimité a une vitesse de 1000 kbps grïâce aux 14 Jours d'essai gratuit offerts par Usenet.nl!
 
Loading...