[Kyoto-Fansub] One Piece 526 - HD VOSTFR (1280x720 x264 AAC) URL Raccourcie

Télécharger "[Kyoto-Fansub] One Piece 526 - HD VOSTFR (1280x720 x264 AAC)" en illimité a une vitesse de 1000 kbps grïâce aux 14 Jours d'essai gratuit offerts par Usenet.nl!




(¯`·._.·[ One Piece  Vostfr HD ]·._.·´¯)






RESTER SVP EN SEED QUAND VOUS AVEZ TERMINE A TELECHARGER, ESPRIT DE PARTAGE, MERCI !







TITRE ORIGINAL : One Piece

ANNÉE DE PRODUCTION : 1999

STUDIOS : [TOEI ANIMATION]  

GENRES : [AVENTURE] [FANTASTIQUE & MYTHE]

AUTEUR : [ODA EIICHIROU]  











Gold Roger est le seigneur des pirates. A sa mort, une grande vague de piraterie s'abat sur le monde. Ces pirates partent à la recherche du One Piece, le fabuleux trésor amassé par Gold Roger durant toute sa vie.


Notre histoire commence dans un petit village dans lequel une bande de pirates réside depuis un an. Monkey D. Luffy, notre héros, est un petit garçon qui rêve de devenir pirate et demande inlassablement à Shanks le Roux, le chef des pirates, de le prendre dans son équipage. Celui-ci refuse évidemment à chaque fois en le tournant en ridicule.


Un jour, Luffy mange par erreur le trésor des pirates qui n'est autre que l'un des fruits du démon, qui ont la réputation de donner des pouvoirs spéciaux. C'est ainsi que Luffy devient un homme élastique. Toutefois, le mangeur d'un fruit du démon se retrouve dans l'incapacité de nager...


Dix ans plus tard, nous retrouvons Luffy qui décide de prendre la mer à la recherche d'un équipage à lui et avec pour objectif de devenir le seigneur des pirates !


source: http://site.onepiecescan.com











Epiosde : 526

Format : Mp4

Qualité : HD

Langue : Japonais

Sous-titre : Français

Taille du fichier : 281 Mo

Team : Kyoto Fansub




MERCI A LA TEAM !!!



UP BY SADAHIRO









↓↓↓ [Kyoto-Fansub] One Piece 526 - HD VOSTFR (1280x720 x264 AAC) ↓↓↓
 

www.usenet.nl

Seeders 2 Leechers 0 Téléchargements 5700
 
Télécharger Dire merci! Signaler
Voir la liste des membres qui vous remercient
↑↑↑ [Kyoto-Fansub] One Piece 526 - HD VOSTFR (1280x720 x264 AAC) ↑↑↑

Informations

Nom [Kyoto-Fansub] One Piece 526 - HD VOSTFR (1280x720 x264 AAC)
Torrent [Kyoto-Fansub] One Piece 526 - HD VOSTFR (1280x720 x264 AAC).torrent
Catégorie Animation Série
Taille totale 280.83 MB
Info Hash e612ae3f54ac112a7003de494ef8f71c71bef483
Uploadé par Sadahiro
Uploadé le 2011-12-04 16:42:21 (+00:00)
Visites 6580
évaluation 5/5 (109 votes)

Liste des Fichiers

Path Size
[Kyoto-Fansub] One Piece 526 - HD VOSTFR (1280x720 x264 AAC).mp4 280.83 MB

Voir le NFO

*******************************************************************************
         [Kyoto-Fansub] One Piece 526  - HD VOSTFR (1280x720 x264 AAC)
*******************************************************************************

-------------------------------------------------------------------------------
                              General Information
-------------------------------------------------------------------------------
Type.................: Animes



Video Format.........: MPEG4
Video Bitrate........:  1 671 Kbps
Resolution...........: 1 280 x 720
Color................: 24 bit
Source...............: Kyoto Fansub
Original Format......: NTSC
Genre................: Adventure
CD1 Size.............: 281 MiB

-------------------------------------------------------------------------------
                               Post Information
-------------------------------------------------------------------------------
Posted by............: Miya
Posted on............: 04/12/2011

-------------------------------------------------------------------------------
                                 Release Notes
-------------------------------------------------------------------------------
Complete name                    : [Kyoto-Fansub] One Piece 526  - HD VOSTFR 
(1280x720 x264 AAC)
Format                           : MPEG-4
Format profile                   : Base Media
Codec ID                         : isom
File size                        : 281 MiB
Duration                         : 23mn 29s
Overall bit rate                 : 1 671 Kbps
Encoded date                     : UTC 2011-12-04 14:58:24
Tagged date                      : UTC 2011-12-04 14:58:24

Video
ID                               : 1
Format                           : AVC
Format/Info                      : Advanced Video Codec
Format profile                   : High@L3.1
Format settings, CABAC           : Yes
Format settings, ReFrames        : 4 frames
Codec ID                         : avc1
Codec ID/Info                    : Advanced Video Coding
Duration                         : 23mn 29s
Bit rate mode                    : Variable
Bit rate                         : 1 504 Kbps
Maximum bit rate                 : 7 305 Kbps
Width                            : 1 280 pixels
Height                           : 720 pixels
Display aspect ratio             : 16:9
Frame rate mode                  : Constant
Frame rate                       : 23.976 fps
Color space                      : YUV
Chroma subsampling               : 4:2:0
Bit depth                        : 8 bits
Scan type                        : Progressive
Bits/(Pixel*Frame)               : 0.068
Stream size                      : 253 MiB (90%)
Writing library                  : x264 core 116 r2074 2641b9e
Encoding settings                : cabac=1 / ref=3 / deblock=1:0:0 / 
analyse=0x3:0x111 / me=hex / subme=7 / psy=1 / psy_rd=1.00:0.00 / mixed_ref=1 / 
me_range=16 / chroma_me=1 / trellis=1 / 8x8dct=1 / cqm=0 / deadzone=21,11 / 
fast_pskip=1 / chroma_qp_offset=-2 / threads=12 / sliced_threads=0 / nr=0 / 
decimate=1 / interlaced=0 / bluray_compat=0 / constrained_intra=0 / bframes=3 / 
b_pyramid=2 / b_adapt=1 / b_bias=0 / direct=1 / weightb=1 / open_gop=0 / 
weightp=2 / keyint=250 / keyint_min=23 / scenecut=40 / intra_refresh=0 / 
rc_lookahead=40 / rc=2pass / mbtree=1 / bitrate=1504 / ratetol=1.0 / qcomp=0.60 
/ qpmin=0 / qpmax=69 / qpstep=4 / cplxblur=20.0 / qblur=0.5 / ip_ratio=1.40 / 
aq=1:1.00
Encoded date                     : UTC 2011-12-04 14:58:24
Tagged date                      : UTC 2011-12-04 14:58:27

Audio
ID                               : 2
Format                           : AAC
Format/Info                      : Advanced Audio Codec
Format version                   : Version 4
Format profile                   : LC
Format settings, SBR             : No
Codec ID                         : 40
Duration                         : 23mn 29s
Bit rate mode                    : Variable
Bit rate                         : 160 Kbps
Maximum bit rate                 : 201 Kbps
Channel(s)                       : 2 channels
Channel positions                : Front: L R
Sampling rate                    : 48.0 KHz
Stream size                      : 26.9 MiB (10%)
Encoded date                     : UTC 2011-12-04 14:58:27
Tagged date                      : UTC 2011-12-04 14:58:27





-------------------------------------------------------------------------------
Generated with Cool NFO Creator - http://fly.to/coolbeans
-------------------------------------------------------------------------------

TÉLÉCHARGER "[Kyoto-Fansub] One Piece 526 - HD VOSTFR (1280x720 x264 AAC)" 20x PLUS VITE AVEC USENET
Anonyme&Rapide – 14 jours gratuits

Ajouter un commentaire

1 - 20 | 21 - 40 | 41 - 51
ace54luffy ↑ 7.66 TB ↓ 3.4 TB Ratio: 2,25

cool! merci pour le post!

benben2401 ↑ 650.9 GB ↓ 839.85 GB Ratio: 0,77

merci

shone85 ↑ 1.16 TB ↓ 523.22 GB Ratio: 2,27

merci

shone85 ↑ 1.16 TB ↓ 523.22 GB Ratio: 2,27

merci

keri2008

merci

chrisnoisett ↑ 8.7 TB ↓ 2.28 TB Ratio: 3,80

MERCI

pgm47 ↑ 152.49 GB ↓ 83.39 GB Ratio: 1,82

Merci
Enjoy

niceprince11 ↑ 136.02 GB ↓ 148.13 GB Ratio: 0,91

MerCi

2leo94 ↑ 3.44 TB ↓ 738.77 GB Ratio: 4,76

Merci !

inox974 ↑ 821.31 GB ↓ 477.11 GB Ratio: 1,72

^trop content

michel13010

GumGum Merciiiiiiiiiiiiiii

mvondo ↑ 190.63 GB ↓ 174.28 GB Ratio: 1,09

merci

sucette974 ↑ 958.64 GB ↓ 693.82 GB Ratio: 1,38

merci

wawa843 ↑ 1.51 TB ↓ 1.94 TB Ratio: 0,77

merci

lounette13 ↑ 2.63 TB ↓ 2.11 TB Ratio: 1,24

somptueux comme toujours merci

illogisme ↑ 1003.1 GB ↓ 975.35 GB Ratio: 1,02

Merci

mephysto ↑ 582.21 GB ↓ 714.65 GB Ratio: 0,81

merci

69lisandro69 ↑ 534.55 GB ↓ 457.55 GB Ratio: 1,16

arigato!

" It's supposed to be you "

by Jack Shephard.

arnidebarni ↑ 3.03 TB ↓ 1.21 TB Ratio: 2,49

woodpp

tanks

1 - 20 | 21 - 40 | 41 - 51
Télécharger "[Kyoto-Fansub] One Piece 526 - HD VOSTFR (1280x720 x264 AAC)" en illimité a une vitesse de 1000 kbps grïâce aux 14 Jours d'essai gratuit offerts par Usenet.nl!
 
Loading...