L.Odyssee.de.Pi.2012.TRUEFRENCH.BRRip.x264-RiV3R URL Raccourcie

Télécharger "L.Odyssee.de.Pi.2012.TRUEFRENCH.BRRip.x264-RiV3R" en illimité a une vitesse de 1000 kbps grïâce aux 14 Jours d'essai gratuit offerts par Usenet.nl!

L'Odyssée de Pi







Après une enfance passée à Pondichéry en Inde, Pi Patel, 17 ans, embarque avec sa famille pour le Canada où l’attend une nouvelle vie. Mais son destin est bouleversé par le naufrage spectaculaire du cargo en pleine mer. Il se retrouve seul survivant à bord d'un canot de sauvetage. Seul, ou presque... Richard Parker, splendide et féroce tigre du Bengale est aussi du voyage. L’instinct de survie des deux naufragés leur fera vivre une odyssée hors du commun au cours de laquelle Pi devra développer son ingéniosité et faire preuve d’un courage insoupçonné pour survivre à cette aventure incroyable.



Réalisateur : Ang Lee,
Scenariste : Yann Martel, David Magee,
Bande originale par : Mychael Danna,
Acteurs : Suraj Sharma, Irrfan Khan, Adil Hussain
Genre : Aventure , Drame
Durée : 127 minutes
Année de production : 2012
Titre Original : Life of Pi
Liens vers imdb : http://www.imdb.fr/title/tt0454876





Qualité: BluRay Rip
Format: x264
Langue: Français
Sous-titre: Français
Taille : 1,30 Go




↓↓↓ L.Odyssee.de.Pi.2012.TRUEFRENCH.BRRip.x264-RiV3R ↓↓↓
 

www.usenet.nl

Seeders 1074 Leechers 4 Téléchargements 60225
 
Télécharger Dire merci! Signaler
Voir la liste des membres qui vous remercient
↑↑↑ L.Odyssee.de.Pi.2012.TRUEFRENCH.BRRip.x264-RiV3R ↑↑↑

Informations

Nom L.Odyssee.de.Pi.2012.TRUEFRENCH.BRRip.x264-RiV3R
Torrent Life.Of.Pi.2012.TRUEFRENCH.BRRip.x264-RiV3R.torrent
Catégorie Film
Taille totale 1.3 GB
Info Hash 7e7c764a5be5f94359c30d1770c4fa9b547c9c01
Uploadé par riv3r
Uploadé le 2013-03-31 19:09:23 (+00:00)
Visites 78145
évaluation 4.8/5 (537 votes)

Liste des Fichiers

Path Size
Life.Of.Pi.2012.TRUEFRENCH.BRRip.x264-RiV3R/Life.Of.Pi.2012.TRUEFRENCH.BRRip.x264-RiV3R.mp4 1.3 GB
Life.Of.Pi.2012.TRUEFRENCH.BRRip.x264-RiV3R/riv3r-lifeofpi.nfo 3.07 KB

Voir le NFO

Source : 1080p ULSHD
Sous-titres : Fr Forces
Date : 31/03/2013

General
Complete name                    : Life.Of.Pi.2012.TRUEFRENCH.BRRip.x264-RiV3R.mp4
Format                           : MPEG-4
Format profile                   : Base Media
Codec ID                         : isom
File size                        : 1.30 GiB
Duration                         : 2h 6mn
Overall bit rate                 : 1 464 Kbps
Movie name                       : Life.Of.Pi.2012.TRUEFRENCH.BRRip.x264-RiV3R.mp4
Writing application              : Lavf52.78.3

Video
ID                               : 1
Format                           : AVC
Format/Info                      : Advanced Video Codec
Format profile                   : High@L3.1
Format settings, CABAC           : Yes
Format settings, ReFrames        : 9 frames
Codec ID                         : avc1
Codec ID/Info                    : Advanced Video Coding
Duration                         : 2h 6mn
Bit rate mode                    : Variable
Bit rate                         : 1 330 Kbps
Width                            : 720 pixels
Height                           : 384 pixels
Display aspect ratio             : 1.875
Frame rate mode                  : Constant
Frame rate                       : 23.976 fps
Color space                      : YUV
Chroma subsampling               : 4:2:0
Bit depth                        : 8 bits
Scan type                        : Progressive
Bits/(Pixel*Frame)               : 0.201
Stream size                      : 1.18 GiB (91%)
Writing library                  : x264 core 120
Encoding settings                : cabac=1 / ref=9 / deblock=1:-3:-3 / analyse=0x3:0x133 / me=umh / subme=10 / psy=1 / psy_rd=0.98:0.08 / mixed_ref=1 / me_range=64 / chroma_me=1 / trellis=2 / 8x8dct=1 / cqm=0 / deadzone=6,6 / fast_pskip=0 / chroma_qp_offset=-3 / threads=6 / sliced_threads=0 / nr=0 / decimate=1 / interlaced=0 / bluray_compat=0 / constrained_intra=0 / bframes=16 / b_pyramid=2 / b_adapt=2 / b_bias=0 / direct=3 / weightb=1 / open_gop=0 / weightp=1 / keyint=240 / keyint_min=24 / scenecut=40 / intra_refresh=0 / rc_lookahead=10 / rc=crf / mbtree=1 / crf=18.8 / qcomp=0.60 / qpmin=0 / qpmax=69 / qpstep=4 / vbv_maxrate=20000 / vbv_bufsize=20000 / crf_max=0.0 / nal_hrd=none / ip_ratio=1.40 / aq=2:0.90
Color primaries                  : BT.709-5, BT.1361, IEC 61966-2-4, SMPTE RP177
Transfer characteristics         : BT.709-5, BT.1361
Matrix coefficients              : BT.709-5, BT.1361, IEC 61966-2-4 709, SMPTE RP177

Audio
ID                               : 2
Format                           : AAC
Format/Info                      : Advanced Audio Codec
Format profile                   : LC
Codec ID                         : 40
Duration                         : 2h 6mn
Bit rate mode                    : Variable
Bit rate                         : 128 Kbps
Channel(s)                       : 2 channels
Channel positions                : Front: L R
Sampling rate                    : 48.0 KHz
Compression mode                 : Lossy
Stream size                      : 116 MiB (9%)



Ajouter un commentaire

1 - 20 | 21 - 40 | 41 - 60 | ... | 181 - 200 | 201 - 220 | 221 - 232
BIBOO94 ↑ 246.69 GB ↓ 290.65 GB Ratio: 0,84

merci

seniortuko ↑ 98.08 GB ↓ 82.73 GB Ratio: 1,18

on me la conseiller je vais voir merci philou

kriagot ↑ 36.25 GB ↓ 43.64 GB Ratio: 0,83

merci pour le partage

tcrmdidier ↑ 6.67 GB ↓ 12.11 GB Ratio: 0,55

super les films

angelakira ↑ 84.12 GB ↓ 59.97 GB Ratio: 1,40

Génial ! Tous mes remerciements, c'est l'un de mes films préférés. Je me souviens après être sortie du cinéma, j'avais l'impression d'être dans un nouveau monde. A voir, absolument !

mix1973 ↑ 331.47 GB ↓ 217.63 GB Ratio: 1,52

super histoire très émouvante image niquel

fato92110 Hajduk Split ! ↑ 18.39 TB ↓ 913.52 GB Ratio: 20,61

Très Bon Torrent !
Merci à L'Uploader pour son travail, Audio/Vidéo RAS

Je Seed
Tu Seed
Il Down ++ Vite

Besoin d'un film ? Ou le journal de demain ? Demandez c'est gratuit !

hdd57 ↑ 961.89 GB ↓ 500.34 GB Ratio: 1,92

J'ai bien aprecié ce films, tellement vrai qu'on y croie pas

icarus2b ↑ 342.18 GB ↓ 314.85 GB Ratio: 1,08

merçi

guester ↑ 30 GB ↓ 1.5 MB Ratio: 20 480,00

moi qui doute des films a 1go bon torrent!

lafeenanou ↑ 1.04 TB ↓ 1.01 TB Ratio: 1,02

pako31500 ↑ 57.69 GB ↓ 8.21 GB Ratio: 7,03

bon film, merci

pitichat313 ↑ 694.17 GB ↓ 522.99 GB Ratio: 1,32

thx dude

akazert ↑ 30.38 GB ↓ 8.82 GB Ratio: 3,44

merci pour ce momment

mitche772007 ↑ 42.94 GB ↓ 11.82 GB Ratio: 3,63

je fais confiance a un ami qui me la conseillé.MERCIhttps://www.t411.me/images/smilies/wave.gif

JBZZZZZ ↑ 26.61 GB ↓ 290.69 GB Ratio: 0,09

Merci !!!!!!!!!!!! bon torrent

Boyka111 ↑ 31.49 GB ↓ 9.32 GB Ratio: 3,38

Je prends, sans hésiter ! merci

Pourquoi cet air si sérieux ?

colaurent90 ↑ 2.12 TB ↓ 758.2 GB Ratio: 2,86

Merci pour ce film, l'image est bonne, le son est un peu faible. Dans tous les cas merci

khrel54 ↑ 865.87 GB ↓ 972.43 GB Ratio: 0,89

Je prends, vu au ciné et il est tout simplement magnifique. Merci bcp

alfelia ↑ 662.87 GB ↓ 239.43 GB Ratio: 2,76

Merci très bonne qualité, très beau film avoir au moins une fois

1 - 20 | 21 - 40 | 41 - 60 | ... | 181 - 200 | 201 - 220 | 221 - 232
Télécharger "L.Odyssee.de.Pi.2012.TRUEFRENCH.BRRip.x264-RiV3R" en illimité a une vitesse de 1000 kbps grïâce aux 14 Jours d'essai gratuit offerts par Usenet.nl!
 
Loading...