La Delicatesse 2011 FRENCH DVDRip XviD - UTT URL Raccourcie

Télécharger "La Delicatesse 2011 FRENCH DVDRip XviD - UTT" en illimité a une vitesse de 1000 kbps grïâce aux 14 Jours d'essai gratuit offerts par Usenet.nl!

(¯`·._.·[  La Délicatesse  ]·._.·´¯







Titre original : Aucune information ...
Année de production : 2011
Réalisateur : Stéphane Foenkinos
Durée : Aucune information ...
[Acteurs : Audrey Tautou,François Damiens,Bruno Todeschini,Joséphine de Meaux
Genre : Comédie dramatique
Date de sortie : 21 Décembre 2011
Année de production : 2011
Année de production : France

Bande annonce :



La Délicatesse



Il passait par là, elle l'avait embrassé sans réfléchir. Maintenant,elle se demande si elle a bien fait. C'est l'histoire d'une femme quiva être surprise par un homme. Réellement surprise.



Hébergeur : SEEBOX
Qualité : DVDRiP
Format : Mpeg-4
Langue : Français
Sous-titre : Aucun
Découper avec : Aucun
Nom de la Release : La Delicatesse 2011 FRENCH DVDRip XviD - UTT

Nombre et taille des fichiers 1 X 700 Mo

Total du post : 700 Mo











Générée le :23-05-2012 à 00:07



↓↓↓ La Delicatesse 2011 FRENCH DVDRip XviD - UTT ↓↓↓
 

www.usenet.nl

Seeders 195 Leechers 0 Téléchargements 48303
 
Télécharger Dire merci! Signaler
Voir la liste des membres qui vous remercient
↑↑↑ La Delicatesse 2011 FRENCH DVDRip XviD - UTT ↑↑↑

Informations

Nom La Delicatesse 2011 FRENCH DVDRip XviD - UTT
Torrent La.Delicatesse.2011.FRENCH.DVDRip.XviD-UTT.avi.torrent
Catégorie Film
Taille totale 700.47 MB
Info Hash 2c119566ce398ac870b663a68f9aadbc2a83b70e
Uploadé par Anonymous
Uploadé le 2012-05-22 22:07:55 (+00:00)
Visites 59049
évaluation 4.8/5 (216 votes)

Liste des Fichiers

Path Size
La.Delicatesse.2011.FRENCH.DVDRip.XviD-UTT.avi 700.47 MB

Voir le NFO

General
Complete name                            : La.Delicatesse.2011.FRENCH.DVDRip.XviD-UTT.avi
Format                                   : AVI
Format/Info                              : Audio Video Interleave
File size                                : 700 MiB
Duration                                 : 1h 44mn
Overall bit rate                         : 935 Kbps
Writing application                      : MEncoder SVN-r22963
Writing library                          : MPlayer

Video
ID                                       : 0
Format                                   : MPEG-4 Visual
Format profile                           : Simple@L3
Format settings, BVOP                    : No
Format settings, QPel                    : No
Format settings, GMC                     : No warppoints
Format settings, Matrix                  : Default (H.263)
Codec ID                                 : XVID
Codec ID/Hint                            : XviD
Duration                                 : 1h 44mn
Bit rate                                 : 802 Kbps
Width                                    : 704 pixels
Height                                   : 384 pixels
Display aspect ratio                     : 16:9
Frame rate                               : 25.000 fps
Color space                              : YUV
Chroma subsampling                       : 4:2:0
Bit depth                                : 8 bits
Scan type                                : Progressive
Compression mode                         : Lossy
Bits/(Pixel*Frame)                       : 0.119
Stream size                              : 601 MiB (86%)
Writing library                          : XviD 1.1.2 (UTC 2006-11-01)

Audio
ID                                       : 1
Format                                   : MPEG Audio
Format version                           : Version 1
Format profile                           : Layer 3
Mode                                     : Joint stereo
Mode extension                           : MS Stereo
Codec ID                                 : 55
Codec ID/Hint                            : MP3
Duration                                 : 1h 44mn
Bit rate mode                            : Constant
Bit rate                                 : 128 Kbps
Channel(s)                               : 2 channels
Sampling rate                            : 48.0 KHz
Compression mode                         : Lossy
Stream size                              : 95.9 MiB (14%)
Alignment                                : Split accross interleaves
Interleave, duration                     : 500 ms (12.50 video frames)
Interleave, preload duration             : 500 ms
Writing library                          : LAME3.98

Ajouter un commentaire

Denomm ↑ 744.43 GB ↓ 434.03 GB Ratio: 1,71

Merci beaucoup

mosmos2011 ↑ 412.49 GB ↓ 337.64 GB Ratio: 1,22

Merci beaucoup

tendancemontagne ↑ 49.33 GB ↓ 25.61 GB Ratio: 1,92

merci, d'aucunes seront ravies d'un tel scenario...

Maxcote33 ↑ 57.54 GB ↓ 30.21 GB Ratio: 1,90

Thank's all the team !

LilyBlue09 ↑ 30.32 GB ↓ 7.11 GB Ratio: 4,26

Thanks for sharing !

Croupion22 ↑ 93.75 GB ↓ 51.16 GB Ratio: 1,83

merci beaucoup pour ce partage. Bonne qualité son et images. J'aime beaucoup François Damiens, Audrey Tautou et tous les autres acteurs de ce film. Encore merci

moune2707 ↑ 2.08 TB ↓ 1.51 TB Ratio: 1,38

Image et son ok.

Lullie ↑ 814.38 GB ↓ 411 GB Ratio: 1,98

Film délicat et sensible, à l'image d'Audrey Tatou...
A découvrir.

Merci pour ce partage.

trabel28 ↑ 273.99 GB ↓ 175.1 GB Ratio: 1,56

Je ne suis pas capable de le télécharger.  Y aurais t-il une astuce mes tracker me dise not allowed merci

buybychti ↑ 417.08 GB ↓ 275.49 GB Ratio: 1,51

merci beaucoup !

narvik34 ↑ 512.24 GB ↓ 464.72 GB Ratio: 1,10

merci ma femme va adorer je reste en seed thank

sydney47 ↑ 87.81 GB ↓ 48.52 GB Ratio: 1,80

merci beaucoup, c'est en entendant la magnifique bo d'emilie simon que j'ai eu envie de voir le film

daveystyle26 ↑ 238.92 GB ↓ 221.49 GB Ratio: 1,07

Merci bcp pour le film

alexandrabb0701 ↑ 50 GB ↓ 20.48 GB Ratio: 2,44

Merci, qualité de l'image et du son impeccable, et très beau film !

colombe2 ↑ 197.91 GB ↓ 231.31 GB Ratio: 0,85

merci

Akatsuki9 ↑ 233.19 GB ↓ 275.91 GB Ratio: 0,84

Merci beaucoup pour ce film! Super B.O. d'Emilie Simon

daz89

Un très bon film, merci qualité super.

cyriaque

Film romantique à souhait
Merci pour le partage

monsieurswann ↑ 203.82 GB ↓ 238.96 GB Ratio: 0,85

François Damien est sublimement touchant

blancat ↑ 700.64 GB ↓ 390.49 GB Ratio: 1,79

Je voulais voir ce film! Merci de ce partage!

Télécharger "La Delicatesse 2011 FRENCH DVDRip XviD - UTT" en illimité a une vitesse de 1000 kbps grïâce aux 14 Jours d'essai gratuit offerts par Usenet.nl!
 
Loading...