le 13eme guerrier URL Raccourcie

Télécharger "le 13eme guerrier" en illimité a une vitesse de 1000 kbps grïâce aux 14 Jours d'essai gratuit offerts par Usenet.nl!

Le 13eme Guerrier





Contraint a l'exil par son calife, pour avoir seduit la femme d'un autre, Ahmed Ibn Fahdlan est envoye comme ambassadeur en Asie mineure. Une prophetie l'oblige a devenir le "13e Guerrier" d'un groupe de Vikings partant porter secours au seigneur Rothgar, dont le village est regulierement attaque par une horde de demons, mi-humains mi-animaux. Au cours de ce long periple vers le nord de l'Europe, Ahmed apprend la langue de ses compagnons et le maniement des armes. Sur place, il devra affronter ses propres peurs.



↓↓↓ le 13eme guerrier ↓↓↓
 

www.usenet.nl

Seeders 15 Leechers 0 Téléchargements 5767
 
Télécharger Dire merci! Signaler
Voir la liste des membres qui vous remercient
↑↑↑ le 13eme guerrier ↑↑↑

Informations

Nom le 13eme guerrier
Torrent 13_guerrier.torrent
Catégorie Film
Taille totale 687.09 MB
Info Hash c833a5ccc8f9e06e971ca3352c0bb54a7d1babf5
Uploadé par waaluigii
Uploadé le 2009-05-24 15:30:44 (+00:00)
Visites 2561
évaluation 4.6/5 (24 votes)

Liste des Fichiers

Path Size
13_guerrier.avi 687.09 MB
read.nfo 2.06 KB

Voir le NFO

General
Complete name                    : 13_guerrier.avi
Format                           : AVI
Format/Info                      : Audio Video Interleave
File size                        : 687 MiB
Duration                         : 1h 38mn
Overall bit rate                 : 974 Kbps
Writing application              : MEncoder 2:1.0~rc2-0ubuntu13.1
Writing library                  : MPlayer
Original source form             : DVD ripped by acidrip.sf.net

Video
Format                           : MPEG-4 Visual
Format profile                   : Streaming Video@L1
Format settings, BVOP            : Yes
Format settings, QPel            : No
Format settings, GMC             : No warppoints
Format settings, Matrix          : Default
Codec ID                         : XVID
Codec ID/Hint                    : XviD
Duration                         : 1h 38mn
Bit rate                         : 837 Kbps
Width                            : 576 pixels
Height                           : 234 pixels
Display aspect ratio             : 2.462
Frame rate                       : 25.000 fps
Resolution                       : 24 bits
Colorimetry                      : 4:2:0
Scan type                        : Progressive
Bits/(Pixel*Frame)               : 0.248
Stream size                      : 591 MiB (86%)
Writing library                  : XviD 1.1.2 (UTC 2006-11-01)

Audio
Format                           : MPEG Audio
Format version                   : Version 1
Format profile                   : Layer 3
Codec ID                         : 55
Codec ID/Hint                    : MP3
Duration                         : 1h 38mn
Bit rate mode                    : Variable
Bit rate                         : 124 Kbps
Channel(s)                       : 2 channels
Sampling rate                    : 48.0 KHz
Resolution                       : 16 bits
Stream size                      : 87.2 MiB (13%)
Alignment                        : Aligned on interleaves
Interleave, duration             : 24 ms (0.60 video frame)
Interleave, preload duration     : 486 ms


TÉLÉCHARGER "le 13eme guerrier" 20x PLUS VITE AVEC USENET
Anonyme&Rapide – 14 jours gratuits

Ajouter un commentaire

1 - 20 | 21 - 34
guyll2 ↑ 430.12 GB ↓ 306.06 GB Ratio: 1,40

merci pour le partage

relop ↑ 2.2 TB ↓ 2.59 TB Ratio: 0,84

seed svp

Galjona ↑ 925.8 GB ↓ 596.81 GB Ratio: 1,55

ty

guyll ↑ 485.42 GB ↓ 358.96 GB Ratio: 1,35

tres bon film a voir  merci

momoallias ↑ 177.61 GB ↓ 169.4 GB Ratio: 1,04

merci pour ce film!!!!!

faridcine ↑ 7.79 TB ↓ 2.68 TB Ratio: 2,90

bon film merci

nikobre ↑ 3.18 TB ↓ 3.23 TB Ratio: 0,98

J'avais la version québecquoise qui est bien meilleure, nos cousins d'Amérique nous dépasse dans ce domaine. Merci quand même, la qualité vidéo et audio est vraiment pas mal pour 687Mo.

JeemBee belong to the blank generation ↑ 1.57 TB ↓ 506.15 GB Ratio: 3,18

Merci pour ce torrent techniquement très bien fait. Le film est sans autre prétention que distraire les spectateurs, particulièrement les enfants. A voir, surtout en famille.

lycanXIV ↑ 1.24 TB ↓ 140.24 GB Ratio: 9,06

MERCI POUR CE FILM

louisbouftou ↑ 4.91 TB ↓ 2.03 TB Ratio: 2,41

merci

lecannibal ↑ 1.42 TB ↓ 475.51 GB Ratio: 3,06

merci

chpounce ↑ 981.57 GB ↓ 664.84 GB Ratio: 1,47

merci bcp

Kouwrechev ↑ 27.22 TB ↓ 2.86 TB Ratio: 9,51

Merci d'indiquer la langue...

herstal24 ↑ 1020.94 GB ↓ 1.27 TB Ratio: 0,78

Merci!

dboi81 ↑ 89.25 GB ↓ 66.15 GB Ratio: 1,34

merci beaucoup, je voulais voir ce film depuis quelques jours. Encore merci....

Katrine1973 ↑ 1.02 TB ↓ 1.01 TB Ratio: 1,01

merci

doogi33 ↑ 134.23 GB ↓ 98.44 GB Ratio: 1,36

merci beaucoup
très bon film

viti24 ↑ 144.72 GB ↓ 164.02 GB Ratio: 0,88

MERCI pour cet excellent film

andr0id06300 ↑ 287.35 GB ↓ 339.4 GB Ratio: 0,84

True French,sur et certain =)
merci pour le Up

MiKeY57

Version Française ? TrueFrench? Serait pas mal de up' le format audio/vidéo =)

Je prends, et je donnerai plus d'information après visionnage du film =)

1 - 20 | 21 - 34
Télécharger "le 13eme guerrier" en illimité a une vitesse de 1000 kbps grïâce aux 14 Jours d'essai gratuit offerts par Usenet.nl!
 
Loading...