Le clip "Happy" complet (24h) de Pharrel Williams URL Raccourcie

Télécharger "Le clip "Happy" complet (24h) de Pharrel Williams" en illimité a une vitesse de 1000 kbps grïâce aux 14 Jours d'essai gratuit offerts par Usenet.nl!
(¯`·._.·[ Clip Happy (24h) ]·._.·´¯





Acteur(s) : Pharrel Williams
Genre : Clip vidéo
Durée : 24 heures
Date de sortie : Novembre 2013




Le clip "Happy" de Pharrell Williams.
Ce clip dure 24 heures !
Il s'agit d'un assemblage de plans séquences de quatre minutes chacun, faisant figurer un danseur différent à chaque fois.
Pharrell Williams apparaît toutes les heures.





Qualité : Aucune Info
Format : DivX
Langue :
Sous-titre : Aucun
Découper avec : Aucun
Bitrate Audio : 192 Kbps
Bitrate Video : 653 Kbps






↓↓↓ Le clip "Happy" complet (24h) de Pharrel Williams ↓↓↓
 

www.usenet.nl

Seeders 11 Leechers 0 Téléchargements 368
 
Télécharger Dire merci! Signaler
Voir la liste des membres qui vous remercient
↑↑↑ Le clip "Happy" complet (24h) de Pharrel Williams ↑↑↑

Informations

Nom Le clip "Happy" complet (24h) de Pharrel Williams
Torrent Pharrel_Williams_Happy_24h.avi.torrent
Catégorie Spectacle
Taille totale 8.6 GB
Info Hash da3f9203ab79fa9f121ea58dfab4596aa54865d9
Uploadé par thtaupin
Uploadé le 2013-11-26 21:40:30 (+00:00)
Visites 850
évaluation 5/5 (7 votes)

Liste des Fichiers

Path Size
Pharrel_Williams_Happy_24h.avi 8.6 GB

Voir le NFO

General
Complete name                            : Pharrel_Williams_Happy_24h.avi
Format                                   : AVI
Format/Info                              : Audio Video Interleave
Format profile                           : OpenDML
File size                                : 8.60 GiB
Duration                                 : 24h 1mn
Overall bit rate                         : 854 Kbps

Video
ID                                       : 0
Format                                   : MPEG-4 Visual
Format profile                           : Simple@L1
Format settings, BVOP                    : No
Format settings, QPel                    : No
Format settings, GMC                     : No warppoints
Format settings, Matrix                  : Default (H.263)
Codec ID                                 : XVID
Codec ID/Hint                            : XviD
Duration                                 : 24h 1mn
Bit rate                                 : 653 Kbps
Width                                    : 640 pixels
Height                                   : 360 pixels
Display aspect ratio                     : 16:9
Frame rate                               : 25.000 fps
Color space                              : YUV
Chroma subsampling                       : 4:2:0
Bit depth                                : 8 bits
Scan type                                : Progressive
Compression mode                         : Lossy
Bits/(Pixel*Frame)                       : 0.113
Stream size                              : 6.57 GiB (76%)
Writing library                          : Lavc54.86.100

Audio
ID                                       : 1
Format                                   : MPEG Audio
Format version                           : Version 1
Format profile                           : Layer 3
Mode                                     : Joint stereo
Mode extension                           : MS Stereo
Codec ID                                 : 55
Codec ID/Hint                            : MP3
Duration                                 : 24h 1mn
Bit rate mode                            : Constant
Bit rate                                 : 192 Kbps
Channel(s)                               : 2 channels
Sampling rate                            : 48.0 KHz
Compression mode                         : Lossy
Stream size                              : 1.93 GiB (22%)
Alignment                                : Aligned on interleaves
Interleave, duration                     : 24 ms (0.60 video frame)
Writing library                          : LAME3.99.5

TÉLÉCHARGER "Le clip "Happy" complet (24h) de Pharrel Williams" 20x PLUS VITE AVEC USENET
Anonyme&Rapide – 14 jours gratuits

Ajouter un commentaire

SNoNo

Ca va être long à récupérer ... mais surtout MERCI

plumplom16 ↑ 6.43 GB ↓ 11.72 GB Ratio: 0,54

24hoursofhappy.com
en hd et free !

mehdidzeko ↑ 30.95 GB ↓ 41.75 GB Ratio: 0,74

c'est en HD ?

minizip [ †eam Pending ]

Torrent Ok!
Merci pour ta participation! Bon download aux autres.
N'oubliez pas de remercier! Les uploadeurs travaillent pour vous et assurent ainsi la diversité des fichiers sur t411.
Un merci, un commentaire et rester en seed, ça fait plaisir à l'uploader.

Chris13005 Uploadeur 2film pour adultes . ↑ 4.74 TB ↓ 330.4 GB Ratio: 14,70

non désolé : image : 630px × 420px / pas bon

thtaupin ↑ 1.02 TB ↓ 840.86 GB Ratio: 1,23

@Chris13005

Corrections de la présentation effectuées !
C'est mieux, non ?

Chris13005 Uploadeur 2film pour adultes . ↑ 4.74 TB ↓ 330.4 GB Ratio: 14,70

Présentation non conforme:
La présentation d'un torrent doit respecter certaines conditions, concernant les images (taille, nombre, etc.).
Clique sur ce lienpour accéder à la section dédiée.

Présentation non conforme:

Il ne faut pas mettre le fichier nfo sur la prez, il est déjà présent ..

Présentation non conforme (Description):
La présentation d'un torrent doit respecter certaines conditions, concernant la description. Celle-ci doit au moins contenir un résumé, une présentation, un synopsis,etc.
Clique sur ce lien pour accéder à la section dédiée.

thtaupin ↑ 1.02 TB ↓ 840.86 GB Ratio: 1,23

Par contre, désolé pour la bande passante...
Encore quatre jours pour faire remonter les 8,6 Go.
Testé sur VLC: ça décoiffe !
Si quelqu'un à un problème, je peux remonter en torrent les six parties de quatre heures.
(Problème constaté sur la Neuf Box qui plante sur la taille du fichier)

stingman ↑ 382.07 GB ↓ 479.8 GB Ratio: 0,79

le meilleur artiste de la derniere decennie! yessir

thtaupin ↑ 1.02 TB ↓ 840.86 GB Ratio: 1,23

Le fameux clip qui dure 24h de Pharrell Williams (pour mémoire: il chante sur Get Lucky des Daft Punk)
Le tout au format AVI pour en disposer sur un média-center.

manouchez ↑ 1.75 TB ↓ 1.87 TB Ratio: 0,93

c'est quoi ???

Télécharger "Le clip "Happy" complet (24h) de Pharrel Williams" en illimité a une vitesse de 1000 kbps grïâce aux 14 Jours d'essai gratuit offerts par Usenet.nl!
 
Loading...