le voyage de la licorne DVDrip VFR Xvid URL Raccourcie

Télécharger "le voyage de la licorne DVDrip VFR Xvid" en illimité a une vitesse de 1000 kbps grïâce aux 14 Jours d'essai gratuit offerts par Usenet.nl!






Cassie Aisling, un jeune garçon de 9 ans, se remet difficilement du récent décès de sa mère. Il ne cesse de rêver au monde magique et mythique des livres pour enfants que sa mère, illustratrice, a laissés inachevés... Un jour, un troll apparaît, puit un autre et encore un autre... Ils viennent pour détruire la famille de Cassie, Mais pourquoi ? Et d'où viennent-ils ? Avant même de pouvoir le découvrir, la famille Aisling se retrouve transportée à bord du navire la Licorne pour accomplir une mission : retrouver le dragon magique, qui a jadis gouverné les Îles féériques, maintenant menacée de destruction par une horde de trolls cruels...




Réalisé par Philip Spink
Avec Beau Bridges, Chantal Conlin, Heather McEwen    Plus...
Film américain.
Genre : Fantastique
Durée : 2h 10min.
Année de production : 2001
Titre original : Voyage of the Unicorn (TV)



↓↓↓ le voyage de la licorne DVDrip VFR Xvid ↓↓↓
 

www.usenet.nl

Seeders 10 Leechers 0 Téléchargements 2103
 
Télécharger Dire merci! Signaler
Voir la liste des membres qui vous remercient
↑↑↑ le voyage de la licorne DVDrip VFR Xvid ↑↑↑

Informations

Nom le voyage de la licorne DVDrip VFR Xvid
Torrent le voyage de la licorne.torrent
Catégorie Film
Taille totale 1.53 GB
Info Hash 5e3c211ba320d8b04347219bc78d82648840bc7e
Uploadé par abdesselam
Uploadé le 2009-05-31 19:33:18 (+00:00)
Visites 1767
évaluation 4.8/5 (16 votes)

Liste des Fichiers

Path Size
le voyage de la licorne.NFO 1.62 KB
licorne.avi 1.53 GB

Voir le NFO

General
Complete name                    :le voyage de la licorne\licorne.avi
Format                           : AVI
Format/Info                      : Audio Video Interleave
Format profile                   : OpenDML
File size                        : 1.53 GiB
Duration                         :  2h 43mn
Overall bit rate                 : 503 Kbps
Writing application              : Lavf51.12.1

Video
Format                           : xvid
Codec ID                         : xvid
Duration                         : 2h 43mn
Bit rate                         : 450 Kbps
Width                            : 720 pixels
Height                           : 576 pixels
Display aspect ratio             : 5/4
Frame rate                       : 25.000 fps
Standard                         : PAL
Resolution                       : 24 bits
Bits/(Pixel*Frame)               : 0.043
Stream size                      : 1.37 GiB (89%)

Audio
Format                           : MPEG Audio
Format version                   : Version 1
Format profile                   : Layer 3
Codec ID                         : 55
Codec ID/Hint                    : MP3
Duration                         : 2h 43mn
Bit rate mode                    : Constant
Bit rate                         : 128 Kbps
Channel(s)                       : 2 channels
Sampling rate                    : 48.0 KHz
Resolution                       : 16 bits
Stream size                      : 149 MiB (10%)
Alignment                        : Aligned on interleaves
Interleave, duration             : 24 ms (0.60 video frame)
Writing library                  : LAME3.97

TÉLÉCHARGER "le voyage de la licorne DVDrip VFR Xvid" 20x PLUS VITE AVEC USENET
Anonyme&Rapide – 14 jours gratuits

Ajouter un commentaire

1 - 20 | 21 - 26
francis6969 ↑ 787.53 GB ↓ 555.46 GB Ratio: 1,41

merci, depuis le temps que je recherchais ce film!!!!!! je suis hyper content, je vais pouvoir le faire découvrir à ma fille!!!!

sdfsdf ↑ 531.18 GB ↓ 502.9 GB Ratio: 1,05

pareil yotiti33 sa fait un moment que je voulais le revoir merci à l'uploader ^^

DoudouneKosmique ↑ 52.11 GB ↓ 19.56 GB Ratio: 2,66

Je le cherchais depuis longtemps, merci !!!

craquottine ↑ 927.72 GB ↓ 1.05 TB Ratio: 0,86

Très bon film avec de bons acteurs belles musiques et chansons merci beaucoup pour l'avoir posté ici

yotiti33 ↑ 30.07 GB ↓ 18.39 GB Ratio: 1,63

8 ans que je le cherchais...merci beaucoup!

Lelia78 ↑ 142.13 GB ↓ 189.55 GB Ratio: 0,74

merci depuis le temps que je le cherchais !!!!!!!!!

Cecile38 ↑ 59.14 GB ↓ 63.61 GB Ratio: 0,92

J'avais vu ce film étant petite mais impossible de me souvenir du nom... Merci de nous le faire partager !!

nolane33 ↑ 30.29 GB ↓ 23 GB Ratio: 1,31

merci beaucoup!

Aurelien444 ↑ 382.86 GB ↓ 308.6 GB Ratio: 1,24

MercIIIIIIIIIIIIIII
j'le chercher depuis.....pffffff trop longtemp.
Mercie

Dedele44 ↑ 281.34 GB ↓ 91.25 GB Ratio: 3,08

Merciiii c'est dingue de voir à quel point énormément de monde recherche ce film. Il est génial merci beaucoup !!

jimmy45680 ↑ 1.07 TB ↓ 1.43 TB Ratio: 0,74

Merci beaucoup j'adore ce film et je voulais le revoir

tinquen ↑ 935.02 GB ↓ 1.07 TB Ratio: 0,85

Merci je l'avais vu une année a noel et je le cherchais depuis ...

Un tres grand merci a toi

momodream ↑ 123.01 GB ↓ 73.13 GB Ratio: 1,68

Merci pour ce bon film

NyXon5 ↑ 814.41 GB ↓ 765.02 GB Ratio: 1,06

Merci beaucoup !

nunuche ↑ 744.2 GB ↓ 686.02 GB Ratio: 1,08

merci

lafeeblanche ↑ 1.09 TB ↓ 334.32 GB Ratio: 3,33

merci

kicking

Film à voir en famille avec des enfants, un petit conte !

Très très bonne qualité, merci.

loubib ↑ 130.1 GB ↓ 142.08 GB Ratio: 0,91

merci super qualité mais le film est vraiment nul !

tinala ↑ 140.25 GB ↓ 44.96 GB Ratio: 3,11

Ma fille a adoré merci à toi pour ton travail

Adhara57 ↑ 734.25 GB ↓ 764.49 GB Ratio: 0,96

Merci beaucoup pour ce film depuis le temps que je le cherchais et que je voulais le voir

1 - 20 | 21 - 26
Télécharger "le voyage de la licorne DVDrip VFR Xvid" en illimité a une vitesse de 1000 kbps grïâce aux 14 Jours d'essai gratuit offerts par Usenet.nl!
 
Loading...