LES DESCHIENS - François Morel - Yolande Moreau [MPEG-4] [FR] [Coffret Série Classique 3 volumes] URL Raccourcie

Télécharger "LES DESCHIENS - François Morel - Yolande Moreau [MPEG-4] [FR] [Coffret Série Classique 3 volumes]" en illimité a une vitesse de 1000 kbps grïâce aux 14 Jours d'essai gratuit offerts par Usenet.nl!

Les Deschiens



Vous ne connaissez pas encore la fromagerie Morel ? Les vertus du Gibolin ?
Retrouvez les aventures ahurissantes de François, Bruno, Yolande et les autres qui se moquent gentiment des travers de la société, de la naïveté des gens. Chez les Deschiens, le rire ne cache pas l’angoisse, il l’accompagne. Ringards mais branchés, les Deschiens veulent entrer de plein pied dans le XXIème siècle…





Les Deschiens - Série Classique – 3 volumes
Volume 1 : 58mn 52s (692 MiB)
Volume 2 : 1h 6mn (692 MiB)
Volume 3 : 1h 11mn (693 MiB)
Genre : Humour
Distributeur : Studio Canal Video - Editeur DVD : Studio Canal Video
Sortie à la Vente en DVD le 03 Octobre 2001

Les acteurs :
François Morel, Yolande Moreau, Jean-Marc Bihour, Olivier Broche, Lorella Cravotta, Philippe Duquesne












↓↓↓ LES DESCHIENS - François Morel - Yolande Moreau [MPEG-4] [FR] [Coffret Série Classique 3 volumes] ↓↓↓
 

www.usenet.nl

Seeders 32 Leechers 2 Téléchargements 1196
 
Télécharger Dire merci! Signaler
Voir la liste des membres qui vous remercient
↑↑↑ LES DESCHIENS - François Morel - Yolande Moreau [MPEG-4] [FR] [Coffret Série Classique 3 volumes] ↑↑↑

Informations

Nom LES DESCHIENS - François Morel - Yolande Moreau [MPEG-4] [FR] [Coffret Série Classique 3 volumes]
Torrent LES DESCHIENS - François Morel - Yolande Moreau [MPEG-4] [FR] [Coffret Série Classique 3 volumes].torrent
Catégorie Spectacle
Taille totale 2.03 GB
Info Hash 85dc2f0903bff0a37b1839e6888e37d1d5098e01
Uploadé par rionderion
Uploadé le 2012-02-25 13:26:21 (+00:00)
Visites 1583
évaluation 4.8/5 (21 votes)

Liste des Fichiers

Path Size
692.21 MB
692.25 MB
693.26 MB

Voir le NFO

General
Complete name                    : /LES DESCHIENS -  Franc?ois Morel - Yolande Moreau [MPEG-4] [FR] [Coffret Se?rie Classique 3 volumes] Vol1.avi
Format                           : AVI
Format/Info                      : Audio Video Interleave
File size                        : 692 MiB
Duration                         : 58mn 52s
Overall bit rate                 : 1 644 Kbps
Writing application              : Nandub v1.0rc2
Writing library                  : Nandub build 1853/release

Video
ID                               : 0
Format                           : MPEG-4 Visual
Codec ID                         : MP42
Codec ID/Info                    : Microsoft MPEG-4 v2 (pre-standard)
Codec ID/Hint                    : Microsoft
Duration                         : 58mn 52s
Bit rate                         : 1 503 Kbps
Width                            : 640 pixels
Height                           : 480 pixels
Display aspect ratio             : 4:3
Frame rate                       : 25.000 fps
Compression mode                 : Lossy
Bits/(Pixel*Frame)               : 0.196
Stream size                      : 633 MiB (91%)

Audio
ID                               : 1
Format                           : MPEG Audio
Format version                   : Version 1
Format profile                   : Layer 3
Mode                             : Joint stereo
Mode extension                   : MS Stereo
Codec ID                         : 55
Codec ID/Hint                    : MP3
Duration                         : 58mn 52s
Bit rate mode                    : Constant
Bit rate                         : 128 Kbps
Channel(s)                       : 2 channels
Sampling rate                    : 48.0 KHz
Compression mode                 : Lossy
Stream size                      : 53.9 MiB (8%)
Alignment                        : Aligned on interleaves
Interleave, duration             : 24 ms (0.60 video frame)
Interleave, preload duration     : 480 ms
Writing library                  : LAME3.88 (alpha)

General
Complete name                    : /LES DESCHIENS -  François Morel - Yolande Moreau [MPEG-4] [FR] [Coffret Série Classique 3 volumes] Vol2.avi
Format                           : AVI
Format/Info                      : Audio Video Interleave
File size                        : 692 MiB
Duration                         : 1h 6mn
Overall bit rate                 : 1 450 Kbps
Writing application              : Nandub v1.0rc2
Writing library                  : Nandub build 1853/release

Video
ID                               : 0
Format                           : MPEG-4 Visual
Codec ID                         : MP42
Codec ID/Info                    : Microsoft MPEG-4 v2 (pre-standard)
Codec ID/Hint                    : Microsoft
Duration                         : 1h 6mn
Bit rate                         : 1 309 Kbps
Width                            : 640 pixels
Height                           : 480 pixels
Display aspect ratio             : 4:3
Frame rate                       : 25.000 fps
Compression mode                 : Lossy
Bits/(Pixel*Frame)               : 0.170
Stream size                      : 625 MiB (90%)

Audio
ID                               : 1
Format                           : MPEG Audio
Format version                   : Version 1
Format profile                   : Layer 3
Mode                             : Joint stereo
Mode extension                   : MS Stereo
Codec ID                         : 55
Codec ID/Hint                    : MP3
Duration                         : 1h 6mn
Bit rate mode                    : Constant
Bit rate                         : 128 Kbps
Channel(s)                       : 2 channels
Sampling rate                    : 48.0 KHz
Compression mode                 : Lossy
Stream size                      : 61.1 MiB (9%)
Alignment                        : Aligned on interleaves
Interleave, duration             : 24 ms (0.60 video frame)
Interleave, preload duration     : 480 ms
Writing library                  : LAME3.88 (alpha)

General
Complete name                    : /LES DESCHIENS -  François Morel - Yolande Moreau [MPEG-4] [FR] [Coffret Série Classique 3 volumes] Vol3.avi
Format                           : AVI
Format/Info                      : Audio Video Interleave
File size                        : 693 MiB
Duration                         : 1h 11mn
Overall bit rate                 : 1 349 Kbps
Writing application              : Nandub v1.0rc2
Writing library                  : Nandub build 1853/release

Video
ID                               : 0
Format                           : MPEG-4 Visual
Codec ID                         : DIV3
Codec ID/Hint                    : DivX 3 Low
Duration                         : 1h 11mn
Bit rate                         : 1 208 Kbps
Width                            : 720 pixels
Height                           : 540 pixels
Display aspect ratio             : 4:3
Frame rate                       : 25.000 fps
Color space                      : YUV
Chroma subsampling               : 4:2:0
Bit depth                        : 8 bits
Compression mode                 : Lossy
Bits/(Pixel*Frame)               : 0.124
Stream size                      : 621 MiB (90%)

Audio
ID                               : 1
Format                           : MPEG Audio
Format version                   : Version 1
Format profile                   : Layer 3
Mode                             : Joint stereo
Mode extension                   : MS Stereo
Codec ID                         : 55
Codec ID/Hint                    : MP3
Duration                         : 1h 11mn
Bit rate mode                    : Constant
Bit rate                         : 128 Kbps
Channel(s)                       : 2 channels
Sampling rate                    : 48.0 KHz
Compression mode                 : Lossy
Stream size                      : 65.8 MiB (9%)
Alignment                        : Aligned on interleaves
Interleave, duration             : 24 ms (0.60 video frame)
Interleave, preload duration     : 480 ms
Writing library                  : LAME3.88 (alpha)

TÉLÉCHARGER "LES DESCHIENS - François Morel - Yolande Moreau [MPEG-4] [FR] [Coffret Série Classique 3 volumes]" 20x PLUS VITE AVEC USENET
Anonyme&Rapide – 14 jours gratuits

Ajouter un commentaire

pmp94 ↑ 69.19 GB ↓ 85.17 GB Ratio: 0,81

excellent merci

letrainsifflera ↑ 1.62 TB ↓ 1.45 TB Ratio: 1,11

merci beaucoup!!

lizeloth ↑ 764.34 GB ↓ 206.62 GB Ratio: 3,69

un grrrrand merci! c'est plus ça que je dis...

kikichat3 Kikichat ↑ 921.43 GB ↓ 843.08 GB Ratio: 1,09

Pour les gens qui n'en veulent!!!! Merci!!!

c2rik ↑ 1.38 TB ↓ 1.23 TB Ratio: 1,11

3615 Qui n'en veux !!!

TofTofTof ↑ 721.96 GB ↓ 960.99 GB Ratio: 0,75

bonjour ,merci ,trop cool ,bon dimanche

chgrand15 ↑ 2.09 TB ↓ 910.57 GB Ratio: 2,34

tout le monde connait les deschiens, sinon c'est les jeunes qui n'ont pas connu la bonne époque de nul part ailleur avec gildas et tout le monde autour (et gildas etait le moins bon avec sa montre...)

toutou35 ↑ 4.3 TB ↓ 2.14 TB Ratio: 2,00

Excellent post, 10/10. Quant au contenu, normalement, une grosse régalade. Bravo et merci pour ce très bon travail.

barberok ↑ 86.44 GB ↓ 51.81 GB Ratio: 1,66

VLC ME DIT ..nom de fichier pas valide ...  peut etre trop de caracteres dans le nom de fichier (path trop long) je sais pas ...mais d'autres l'on trouvé "bon" donc ca dois venir de chez moi

rionderion ↑ 92.97 GB ↓ 123.58 GB Ratio: 0,75

Barberok/ C'est très bizarre que tu ne puisses pas les lire... J'ai pourtant suivi la même manip' que d'habitude pour l'upload, et je peux lire les vidéos sans problème. J'attends les réactions des autres, en tout cas je suis bien désolée.
à suivre...  

"Bienheureux les fêlés, ils laissent passer la lumière."

barberok ↑ 86.44 GB ↓ 51.81 GB Ratio: 1,66

impossible d'ouvrir les fichier quel que soit le lecteur ....impossible de copier ou couper pour essayer sur un autre ordi ...dommage j'attendais ca avec impatience

byr

Plus de source !!!
Ben alors !

bernardi ↑ 2.2 TB ↓ 1.61 TB Ratio: 1,36

merci super sympa

Passenger974 ↑ 597.92 GB ↓ 768.84 GB Ratio: 0,77

woaw !! super merci ^^

vous auriez pas le spectacle diffusé a l'éopque sur canal ?

merci !!



RE TLM, JE SUIS DE RETOUR DE VACANCES. DES PLUS MON PORTABLE M'A LACHE. JE SUIS SUR UN PC DE SECOURS EN ATTENDANT UNE FUTUR CONFIG

boulesg ↑ 6.03 TB ↓ 5.08 TB Ratio: 1,18

Merci beaucoup, ça va me rappeler tellement de bons souvenirs et de fous rires.

Télécharger "LES DESCHIENS - François Morel - Yolande Moreau [MPEG-4] [FR] [Coffret Série Classique 3 volumes]" en illimité a une vitesse de 1000 kbps grïâce aux 14 Jours d'essai gratuit offerts par Usenet.nl!
 
Loading...