Les.Hommes.qui.Marchent.sur.la.Queue.du.Tigre.Bluray.720p.VOST URL Raccourcie

Télécharger "Les.Hommes.qui.Marchent.sur.la.Queue.du.Tigre.Bluray.720p.VOST" en illimité a une vitesse de 1000 kbps grïâce aux 14 Jours d'essai gratuit offerts par Usenet.nl!

(¯`·._.·[  Les Hommes qui marchent sur la queue du tigre  ]·._.·´¯





Réalisateur(s) : Akira Kurosawa
Acteur(s) : Denjiro Okochi, Susumu Fujita, Kenichi Enomoto
Genre : Aventure, Drame, Thriller
Durée : 1h 10min
Date de sortie : 1945




Un seigneur en fuite, ses gardes du corps et disciples, tout déguisé en moine, doivent traverser une forêt, dans laquelle ils doivent éviter d'être capturer et amadouer les gardes-frontières.



Nom de la Release : Les.Hommes.qui.Marchent.sur.la.Queue.du.Tigre.Bluray.720p.VOST


Hébergeur :
Qualité : Blu-Ray 720p
Format : x264
Langue : Japonais
Sous-titre : Français


[color=#008B8B]







Générée le :12-05-2012 à 03:50




↓↓↓ Les.Hommes.qui.Marchent.sur.la.Queue.du.Tigre.Bluray.720p.VOST ↓↓↓
 

www.usenet.nl

Seeders 7 Leechers 0 Téléchargements 122
 
Télécharger Dire merci! Signaler
Voir la liste des membres qui vous remercient
↑↑↑ Les.Hommes.qui.Marchent.sur.la.Queue.du.Tigre.Bluray.720p.VOST ↑↑↑

Informations

Nom Les.Hommes.qui.Marchent.sur.la.Queue.du.Tigre.Bluray.720p.VOST
Torrent Les.Hommes.qui.Marchent.sur.la.Queue.du.Tigre.Bluray.720p.VOST.mkv.torrent
Catégorie Film
Taille totale 1.11 GB
Info Hash c1fbf11d469c30e703fa3636fca5ea9de9477ced
Uploadé par mano97231
Uploadé le 2012-05-12 00:10:53 (+00:00)
Visites 179
évaluation 5/5 (3 votes)

Liste des Fichiers

Path Size
Les.Hommes.qui.Marchent.sur.la.Queue.du.Tigre.Bluray.720p.VOST.mkv 1.11 GB

Voir le NFO

General
Unique ID                                : 227012577828983600449904713841500422290 (0xAAC9083A489C8627947C1F623E670092)
Complete name                            : /media/Nouveau nom__/movie/Les.Hommes.qui.Marchent.sur.la.Queue.du.Tigre.Bluray.720p.VOST.mkv
Format                                   : Matroska
Format version                           : Version 1
File size                                : 1.11 GiB
Duration                                 : 59mn 21s
Overall bit rate                         : 2 685 Kbps
Encoded date                             : UTC 2011-08-11 18:23:04
Writing application                      : mkvmerge v1.7.0 ('What Do You Take Me For') built on Apr 28 2006 17:20:19
Writing library                          : libebml v0.7.7 + libmatroska v0.8.0

Video
ID                                       : 1
Format                                   : AVC
Format/Info                              : Advanced Video Codec
Format profile                           : High@L4.1
Format settings, CABAC                   : Yes
Format settings, ReFrames                : 5 frames
Codec ID                                 : V_MPEG4/ISO/AVC
Duration                                 : 59mn 21s
Bit rate                                 : 2 299 Kbps
Width                                    : 976 pixels
Height                                   : 720 pixels
Display aspect ratio                     : 4:3
Frame rate                               : 23.976 fps
Color space                              : YUV
Chroma subsampling                       : 4:2:0
Bit depth                                : 8 bits
Scan type                                : Progressive
Bits/(Pixel*Frame)                       : 0.136
Stream size                              : 954 MiB (84%)
Writing library                          : x264 core 98 r1649 c54c47d
Encoding settings                        : cabac=1 / ref=5 / deblock=1:-1:-1 / analyse=0x3:0x133 / me=umh / subme=10 / psy=1 / psy_rd=1.00:0.15 / mixed_ref=1 / me_range=32 / chroma_me=1 / trellis=2 / 8x8dct=1 / cqm=0 / deadzone=21,11 / fast_pskip=1 / chroma_qp_offset=-3 / threads=6 / sliced_threads=0 / nr=0 / decimate=0 / interlaced=0 / constrained_intra=0 / bframes=3 / b_pyramid=0 / b_adapt=2 / b_bias=0 / direct=3 / weightb=1 / weightp=2 / keyint=250 / keyint_min=25 / scenecut=40 / intra_refresh=0 / rc_lookahead=40 / rc=2pass / mbtree=1 / bitrate=2299 / ratetol=1.0 / qcomp=0.60 / qpmin=10 / qpmax=51 / qpstep=4 / cplxblur=20.0 / qblur=0.5 / vbv_maxrate=50000 / vbv_bufsize=50000 / ip_ratio=1.40 / aq=1:1.00 / nal_hrd=none
Language                                 : English
Default                                  : Yes
Forced                                   : No

Audio
ID                                       : 2
Format                                   : AC-3
Format/Info                              : Audio Coding 3
Mode extension                           : CM (complete main)
Format settings, Endianness              : Big
Codec ID                                 : A_AC3
Duration                                 : 59mn 21s
Bit rate mode                            : Constant
Bit rate                                 : 384 Kbps
Channel(s)                               : 2 channels
Channel positions                        : Front: L R
Sampling rate                            : 48.0 KHz
Bit depth                                : 16 bits
Compression mode                         : Lossy
Stream size                              : 163 MiB (14%)
Language                                 : Japanese
Default                                  : Yes
Forced                                   : No

Text #1
ID                                       : 3
Format                                   : UTF-8
Codec ID                                 : S_TEXT/UTF8
Codec ID/Info                            : UTF-8 Plain Text
Title                                    : FR
Language                                 : French
Default                                  : Yes
Forced                                   : No

Text #2
ID                                       : 4
Format                                   : UTF-8
Codec ID                                 : S_TEXT/UTF8
Codec ID/Info                            : UTF-8 Plain Text
Title                                    : EN
Language                                 : English
Default                                  : No
Forced                                   : No

Menu
00:00:00.000                             : :1
00:01:00.310                             : :2
00:01:59.786                             : :3
00:02:53.590                             : :4
00:04:38.487                             : :5
00:16:54.513                             : :6
00:17:57.410                             : :7
00:19:08.230                             : :8
00:22:29.765                             : :9
00:45:22.887                             : :10
00:57:00.417                             : :12
00:59:11.757                             : :12


TÉLÉCHARGER "Les.Hommes.qui.Marchent.sur.la.Queue.du.Tigre.Bluray.720p.VOST" 20x PLUS VITE AVEC USENET
Anonyme&Rapide – 14 jours gratuits

Ajouter un commentaire

Hikori23 ↑ 212.8 GB ↓ 37.31 GB Ratio: 5,70

Super film, ancien, mais superbe. Merci beaucoup !!

manusuke ↑ 3.19 TB ↓ 2.54 TB Ratio: 1,25

Merci! Très bonne qualité

Télécharger "Les.Hommes.qui.Marchent.sur.la.Queue.du.Tigre.Bluray.720p.VOST" en illimité a une vitesse de 1000 kbps grïâce aux 14 Jours d'essai gratuit offerts par Usenet.nl!
 
Loading...