Les Mills' BODY JAM HOUSE [DVDrip][FR] [Wuforever83] URL Raccourcie

Télécharger "Les Mills' BODY JAM HOUSE [DVDrip][FR] [Wuforever83]" en illimité a une vitesse de 1000 kbps grïâce aux 14 Jours d'essai gratuit offerts par Usenet.nl!

Les Mills' BODY JAM HOUSE
(House Workout Production Nestle For FITNESS)










Production : Nestle For FITNESS
Année : 2010
Langue : Français
Genre : Cours De Body Jam
Durée : 20 min 43 sec
Standard : PAL
Taille : 289 MO



Les céréales FITNESS vous offrent un cours de danse LES MILLS'.
Dans le cadre du programme ventre plat, votre cours de danse LES MILLS' vous aidera à brûler des calories mais aussi à travailler votre cardio.
BODYJAM House: Avec ce cours de danse vous bougerez au rythme de la musique HOUSE pour transpirer tout en vous amusant.
Ce cours est un cocktail des derniers mouvements de danse et des tubes du moment!



Format : MPEG-PS
File size : 290 MiB
Duration : 20mn 43s
Overall bit rate : 1 954 Kbps
Writing library : encoded by TMPGEnc 4.0 XPress Version. 4.7.6.304


Video


ID : 224 (0xE0)
Format : MPEG Video
Format version : Version 1
Format settings, BVOP : Yes
Format settings, Matrix : Default
Duration : 20mn 43s
Bit rate mode : Constant
Bit rate : 1 700 Kbps
Width : 720 pixels
Height : 576 pixels
Display aspect ratio : 4:3
Frame rate : 25.000 fps
Standard : PAL
Color space : YUV
Bit depth : 8 bits
Scan type : Progressive
Compression mode : Lossy
Bits/(Pixel*Frame) : 0.164
Stream size : 251 MiB (87%)
Writing library : TMPGEnc XPress 4.7.6.304

Audio:

ID : 192 (0xC0)
Format : MPEG Audio
Format version : Version 1
Format profile : Layer 2
Duration : 20mn 43s
Bit rate mode : Constant
Bit rate : 224 Kbps
Channel(s) : 2 channels
Sampling rate : 48.0 KHz
Compression mode : Lossy
Stream size : 33.2 MiB (11%)



Bonne séance à tous !!!


Pensez au SEED



↓↓↓ Les Mills' BODY JAM HOUSE [DVDrip][FR] [Wuforever83] ↓↓↓
 

www.usenet.nl

Seeders 4 Leechers 0 Téléchargements 681
 
Télécharger Dire merci! Signaler
Voir la liste des membres qui vous remercient
↑↑↑ Les Mills' BODY JAM HOUSE [DVDrip][FR] [Wuforever83] ↑↑↑

Informations

Nom Les Mills' BODY JAM HOUSE [DVDrip][FR] [Wuforever83]
Torrent Les Mills' BODY JAM HOUSE [DVD-R] Wuforever83.MPG.torrent
Catégorie Film
Taille totale 289.55 MB
Info Hash bda01ad2c9ec996b09b0432e7a2c50011037b8f1
Uploadé par venicya
Uploadé le 2012-01-29 23:22:23 (+00:00)
Visites 962
évaluation 4.4/5 (17 votes)

Liste des Fichiers

Path Size
Les Mills' BODY JAM HOUSE [DVD-R] Wuforever83.MPG 289.55 MB

Voir le NFO

*******************************************************************************
                          Les Mills' BODY JAM HOUSE
                  (House Workout Production Nestle For FITNESS)
                                [Wuforever83]
*******************************************************************************

-------------------------------------------------------------------------------
                              General Information
-------------------------------------------------------------------------------
Production...........: Nestle For FITNESS
Année................: 2010
Type.................: Cours de BodyJam
Part Size............: 303616004 octets(289 Mo)
Langue...............: Franτais
Durée................: 20 min 43sec
Standard.............: PAL
-------------------------------------------------------------------------------
                               Post Information
-------------------------------------------------------------------------------
Posted by............: Vénicya (By Wuforever83)
Posted on............: 30/01/2012

-------------------------------------------------------------------------------
                                 Release Notes
-------------------------------------------------------------------------------
Les céréales FITNESS vous offrent un cours de danse LES MILLS'.
Dans le cadre du programme ventre plat, votre cours de danse LES MILLS' vous ai
dera à br√ler des calories mais aussi à travailler votre cardio.

BODYJAM House: Avec ce cours de danse vous bougerez au rythme de la musique
HOUSE pour transpirer tout en vous amusant.Ce cours est un cocktail des 
derniers mouvements de danse et des tubesdu moment!
-------------------------------------------------------------------------------
                                 FORMAT Notes
-------------------------------------------------------------------------------

Format                      : MPEG-PS

File size                   : 290 MiB

Duration                    : 20mn 43s

Overall bit rate            : 1 954 Kbps

Writing library             : encoded by TMPGEnc 4.0 XPress Version. 4.7.6.304



Video
:

ID                          : 224 (0xE0)

Format                      : MPEG Video

Format version              : Version 1

Format settings, BVOP       : Yes

Format settings, Matrix     : Default

Duration                    : 20mn 43s

Bit rate mode               : Constant

Bit rate                    : 1 700 Kbps

Width                       : 720 pixels

Height                      : 576 pixels

Display aspect ratio        : 4:3

Frame rate                  : 25.000 fps

Standard                    : PAL

Color space                 : YUV

Bit depth                   : 8 bits

Scan type                   : Progressive

Compression mode            : Lossy
Bits/(Pixel*Frame)          : 0.164

Stream size                 : 251 MiB (87%)

Writing library             : TMPGEnc XPress 4.7.6.304



Audio:


ID                          : 192 (0xC0)

Format                      : MPEG Audio

Format version              : Version 1

Format profile              : Layer 2

Duration                    : 20mn 43s

Bit rate mode               : Constant

Bit rate                    : 224 Kbps

Channel(s)                  : 2 channels

Sampling rate               : 48.0 KHz

Compression mode            : Lossy

Stream size                 : 33.2 MiB (11%)



-------------------------------------------------------------------------------
                             BONNE SEANCE └ TOUS

Ajouter un commentaire

Camele0n ↑ 23.68 GB ↓ 15.16 GB Ratio: 1,56

Génial, ce sont en fait de veille tracks du sh'bam ^^ ca fait plaisir merci

anne56 ↑ 30.11 GB ↓ 26.05 GB Ratio: 1,15

merci pour le cours

SHIBAZZ ↑ 498.61 GB ↓ 153.22 GB Ratio: 3,25

super pour mon programme perso. Merci pour vos cours

Jacadiadi

Effectivement, si la suite LesMills étaient dispo on lutterait contre l'obésité.

jessedma ↑ 1.69 TB ↓ 567.78 GB Ratio: 3,04

sympa merci si il y a d'autre je prend merci

Axange ↑ 4.15 TB ↓ 3.97 TB Ratio: 1,04

Merci bien! si tu as la même chose pour le RPM , le body pump et le body combat, je suis preneur

Télécharger "Les Mills' BODY JAM HOUSE [DVDrip][FR] [Wuforever83]" en illimité a une vitesse de 1000 kbps grïâce aux 14 Jours d'essai gratuit offerts par Usenet.nl!
 
Loading...