Les Princes de l'Amour HD (S01E05 - 10/01/2014) - 1080i HD URL Raccourcie

Télécharger "Les Princes de l'Amour HD (S01E05 - 10/01/2014) - 1080i HD" en illimité a une vitesse de 1000 kbps grïâce aux 14 Jours d'essai gratuit offerts par Usenet.nl!
(¯`·._.·[ Les Princes de l'Amour ]·._.·´¯
(Saison 1, Episode 5, 10/01/2014) - HD 1080i

Cliquez ici pour la version SD basse résolution d'Atarix (350MO) : http://www.t411.me/torrents/les-princes-de-l-amour-s01e05-french-webrip-xvid-archos7592
Cliquez ici pour les autres épisodes en version HD haute résolution (500MO) : http://www.t411.me/torrents/search/?search=princes amour 1080i HD&cat=&submit=Recherche




SANS PUBLICITES
Langue et Origine : France
Chaine : W9 HD
Durée : 37min
Genre : Télé-Réalité
Date de diffusion : 10/01/2014
_______________________________________________

Format Vidéo : MP4 AVC 1080i @2000Kbps
Format Audio : AAC @128Kbps
Langue : Français
Taille : 576 MO


Six anciens candidats de "La Belle Et Ses Princes Presque Charmants", toujours à la recherche de l'amour, tentent à nouveau leur chance et essaient de trouver l'âme soeur. Ils vont vivre ensemble dans une villa et rencontrer plusieurs jeunes filles qui ont été séduites pendant la diffusion de leurs portraits.
________________________________________

"Les Princes de l'Amour" est la nouvelle émission de télé-réalité quotidienne de W9.
________________________________________









↓↓↓ Les Princes de l'Amour HD (S01E05 - 10/01/2014) - 1080i HD ↓↓↓
 

www.usenet.nl

Seeders 8 Leechers 0 Téléchargements 799
 
Télécharger Dire merci! Signaler
Voir la liste des membres qui vous remercient
↑↑↑ Les Princes de l'Amour HD (S01E05 - 10/01/2014) - 1080i HD ↑↑↑

Informations

Nom Les Princes de l'Amour HD (S01E05 - 10/01/2014) - 1080i HD
Torrent Les Princes de L'Amour (S01E05), 10-01-2014, HDTV.mp4.torrent
Catégorie Emission TV
Taille totale 576.72 MB
Info Hash eda41a8fa0dd0e5078ff2814d019c6a51892f230
Uploadé par superpj2
Uploadé le 2014-01-10 20:11:42 (+00:00)
Visites 1029
évaluation 5/5 (20 votes)

Liste des Fichiers

Path Size
Les Princes de L'Amour (S01E05), 10-01-2014, HDTV.mp4 576.72 MB

Voir le NFO

Complete name                            : Les Princes de L'Amour (S01E05), 10-01-2014, HDTV.mp4
Format                                   : MPEG-4
Format profile                           : Base Media / Version 2
Codec ID                                 : mp42
File size                                : 577 MiB
Duration                                 : 37mn 34s
Overall bit rate mode                    : Variable
Overall bit rate                         : 2 146 Kbps
Encoded date                             : UTC 2014-01-10 20:06:27
Tagged date                              : UTC 2014-01-10 20:06:27

Video
Format                                   : AVC
Format/Info                              : Advanced Video Codec
Format profile                           : High@L4.0
Format settings, CABAC                   : Yes
Format settings, ReFrames                : 3 frames
Codec ID                                 : avc1
Codec ID/Info                            : Advanced Video Coding
Duration                                 : 37mn 34s
Bit rate mode                            : Variable
Bit rate                                 : 2 013 Kbps
Maximum bit rate                         : 5 000 Kbps
Width                                    : 1 440 pixels
Height                                   : 1 080 pixels
Display aspect ratio                     : 4:3
Original display aspect ratio            : 16:9
Frame rate mode                          : Constant
Frame rate                               : 25.000 fps
Standard                                 : NTSC
Color space                              : YUV
Chroma subsampling                       : 4:2:0
Bit depth                                : 8 bits
Scan type                                : Progressive
Bits/(Pixel*Frame)                       : 0.052
Stream size                              : 541 MiB (94%)
Language                                 : English
Encoded date                             : UTC 2014-01-10 20:06:27
Tagged date                              : UTC 2014-01-10 20:06:27
Color primaries                          : BT.709
Transfer characteristics                 : BT.709
Matrix coefficients                      : BT.709

Audio
Format                                   : AAC
Format/Info                              : Advanced Audio Codec
Format profile                           : LC
Codec ID                                 : 40
Duration                                 : 37mn 34s
Bit rate mode                            : Constant
Bit rate                                 : 128 Kbps
Channel count                            :  channel0
Original Channel count                   : 2 channels
Channel positions                        : Front: L R
Sampling rate                            : 44.1 KHz
Compression mode                         : Lossy
Stream size                              : 34.4 MiB (6%)
Language                                 : English
Encoded date                             : UTC 2014-01-10 20:06:27
Tagged date                              : UTC 2014-01-10 20:06:27

TÉLÉCHARGER "Les Princes de l'Amour HD (S01E05 - 10/01/2014) - 1080i HD" 20x PLUS VITE AVEC USENET
Anonyme&Rapide – 14 jours gratuits

Ajouter un commentaire

SAGEM2504 ↑ 162.4 GB ↓ 92.03 GB Ratio: 1,76

utilisateur411np ↑ 1.34 TB ↓ 1.03 TB Ratio: 1,30

MERCI

micdodo ↑ 554.44 GB ↓ 544.85 GB Ratio: 1,01

Génial comme d'hab,merci bien.

Télécharger "Les Princes de l'Amour HD (S01E05 - 10/01/2014) - 1080i HD" en illimité a une vitesse de 1000 kbps grïâce aux 14 Jours d'essai gratuit offerts par Usenet.nl!
 
Loading...