Les Septs Samourais URL Raccourcie

Télécharger "Les Septs Samourais" en illimité a une vitesse de 1000 kbps grïâce aux 14 Jours d'essai gratuit offerts par Usenet.nl!
Les septs samouraïs (1954)




Réalisateur(s) : Akira Kurosawa
Acteur(s) : Toshirô Mifune, Takashi Shimura, Yoshio Inaba, Seiji Miyaguchi, Minoru Chiaki
Genre : Action, Drame, Aventure
Durée : 03h26min
Date de sortie : 18 Décembre 2002


Au Moyen-Age, la tranquillité d'un petit village japonais est troublée par les attaques répétées d'une bande de pillards. Sept samouraïs sans maître acceptent de défendre les paysans impuissants.



Qualité : HDRiP
Format : m4v
Langue : Japonais
Sous-titre : Francais
Nombre de fichiers : 1 Fichiers
Taille totale : 4150 Mo
Info sur la release : Les septs samouraïs hdrip par moi-même



Le format vidéo est du m4v, très facilement changeable en mkv en le renommant. Le seul avantage du m4v est l'affichage de la couverture à mon sens. Bon film !



Total du post: 4150 Mo



↓↓↓ Les Septs Samourais ↓↓↓
 

www.usenet.nl

Seeders 5 Leechers 1 Téléchargements 131
 
Télécharger Dire merci! Signaler
Voir la liste des membres qui vous remercient
↑↑↑ Les Septs Samourais ↑↑↑

Informations

Nom Les Septs Samourais
Torrent Seven Samurai-1954.m4v.torrent
Catégorie Film
Taille totale 3.87 GB
Info Hash 4ef5a81036ec7af82e6a7bd5ef387f39baacf4ca
Uploadé par mrbingo412
Uploadé le 2013-09-18 12:57:45 (+00:00)
Visites 246
évaluation 5/5 (2 votes)

Liste des Fichiers

Path Size
Seven Samurai-1954.m4v 3.87 GB

Voir le NFO

Format                                   : MPEG-4
Format profile                           : Base Media / Version 2
Codec ID                                 : mp42
File size                                : 3.87 GiB
Duration                                 : 3h 27mn
Overall bit rate mode                    : Variable
Overall bit rate                         : 2 673 Kbps
Movie name                               : Les sept samouraòs
Performer                                : Mifune, Takashi Shimura, Yoshio Inaba, Seiji Miyaguchi, Minoru Chiaki, Daisuke, Isao Kimura, Keiko Tsushima
Genre                                    : Action & Adventure, Drama, War
Recorded date                            : 1954-04-26
Encoded date                             : UTC 2011-08-03 12:54:18
Tagged date                              : UTC 2011-08-04 10:46:55
Writing application                      : iVI (South Pole Software)
Cover                                    : Yes
desc                                     : Au XVIÅ siÅcle, au Japon, des paysans dÄcident d'embaucher des samouraòs pour protÄger leur village, et en trouvent sept. Ces hommes organisent la dÄfense du village contre quarante brigands.


Video
ID                                       : 1
Format                                   : AVC
Format/Info                              : Advanced Video Codec
Format profile                           : High@L3.1
Format settings, CABAC                   : Yes
Format settings, ReFrames                : 4 frames
Codec ID                                 : avc1
Codec ID/Info                            : Advanced Video Coding
Duration                                 : 3h 27mn
Bit rate mode                            : Variable
Bit rate                                 : 2 500 Kbps
Width                                    : 960 pixels
Height                                   : 720 pixels
Display aspect ratio                     : 4:3
Frame rate mode                          : Variable
Frame rate                               : 23.976 fps
Minimum frame rate                       : 23.810 fps
Maximum frame rate                       : 24.390 fps
Color space                              : YUV
Chroma subsampling                       : 4:2:0
Bit depth                                : 8 bits
Scan type                                : Progressive
Bits/(Pixel*Frame)                       : 0.151
Stream size                              : 3.62 GiB (94%)
Writing library                          : x264 core 112
Encoding settings                        : cabac=1 / ref=3 / deblock=1:0:0 / analyse=0x3:0x113 / me=hex / subme=7 / psy=1 / psy_rd=1.00:0.00 / mixed_ref=1 / me_range=16 / chroma_me=1 / trellis=1 / 8x8dct=1 / cqm=0 / deadzone=21,11 / fast_pskip=1 / chroma_qp_offset=-2 / threads=3 / sliced_threads=0 / nr=0 / decimate=1 / interlaced=0 / constrained_intra=0 / bframes=3 / b_pyramid=2 / b_adapt=1 / b_bias=0 / direct=1 / weightb=1 / open_gop=0 / weightp=2 / keyint=240 / keyint_min=23 / scenecut=40 / intra_refresh=0 / rc_lookahead=40 / rc=2pass / mbtree=1 / bitrate=2500 / ratetol=1.0 / qcomp=0.60 / qpmin=3 / qpmax=51 / qpstep=4 / cplxblur=20.0 / qblur=0.5 / ip_ratio=1.40 / aq=1:1.00
Encoded date                             : UTC 2011-08-03 12:54:18
Tagged date                              : UTC 2011-08-03 18:28:34
Color primaries                          : BT.709-5, BT.1361, IEC 61966-2-4, SMPTE RP177
Transfer characteristics                 : BT.709-5, BT.1361
Matrix coefficients                      : BT.709-5, BT.1361, IEC 61966-2-4 709, SMPTE RP177

Audio
ID                                       : 2
Format                                   : AAC
Format/Info                              : Advanced Audio Codec
Format profile                           : LC
Codec ID                                 : 40
Duration                                 : 3h 27mn
Bit rate mode                            : Variable
Bit rate                                 : 164 Kbps
Maximum bit rate                         : 250 Kbps
Channel(s)                               : 1 channel
Channel positions                        : Front: C
Sampling rate                            : 48.0 KHz
Compression mode                         : Lossy
Stream size                              : 244 MiB (6%)
Language                                 : Japanese
Encoded date                             : UTC 2011-08-03 12:54:18
Tagged date                              : UTC 2011-08-03 18:28:34

Text #1
ID                                       : 3
Format                                   : Timed text
Muxing mode                              : sbtl
Codec ID                                 : tx3g
Duration                                 : 3h 26mn
Bit rate mode                            : Variable
Bit rate                                 : 24 bps
Stream size                              : 36.3 KiB (0%)
Language                                 : French
Encoded date                             : UTC 2011-08-03 12:54:18
Tagged date                              : UTC 2011-08-03 18:28:27

Text #2
ID                                       : 4
Format                                   : Timed text
Muxing mode                              : sbtl
Codec ID                                 : tx3g
Bit rate mode                            : Constant
Language                                 : English
Encoded date                             : UTC 2011-08-03 12:54:18
Tagged date                              : UTC 2011-08-03 12:54:18

Text #3
ID                                       : 5
Format                                   : Timed text
Muxing mode                              : sbtl
Codec ID                                 : tx3g
Bit rate mode                            : Constant
Encoded date                             : UTC 2011-08-03 12:54:18
Tagged date                              : UTC 2011-08-03 12:54:18

TÉLÉCHARGER "Les Septs Samourais" 20x PLUS VITE AVEC USENET
Anonyme&Rapide – 14 jours gratuits

Ajouter un commentaire

purcell71 ↑ 665.41 GB ↓ 467.97 GB Ratio: 1,42

Super film!
Un des chef-d'oeuvre du Cinéma Mondiale.
Superbe version: A VOIR ABSOLUMENT
Encore merci

Purcell

juju750xx ↑ 5.92 TB ↓ 567.1 GB Ratio: 10,69

Torrent Ok!
Merci pour ta participation! Bon download aux autres.
N'oubliez pas de remercier! Les uploadeurs travaillent pour vous et assurent ainsi la diversité des fichiers sur t411.
Un merci, un commentaire et rester en seed, ça fait plaisir à l'uploader.


http://www.teamspeak.com/invite/ts.comut411.com/

mrbingo412 ↑ 160.81 GB ↓ 184.14 GB Ratio: 0,87

Ok très bien, je n'ai sans doute pas vu ce point là, c'était pour bien spécifier que c'est du 4/3, je change ça merci.

Rainstorm Foudroyeur intersidéral

Présentation non conforme (Description):
La présentation d'un torrent doit respecter certaines conditions, concernant la description. Celle-ci doit au moins contenir un résumé, une présentation, un synopsis,etc.
Clique sur ce lien pour accéder à la section dédiée.

Le NFO doit rester au niveau du NFO et ne pas être recopié dans la description.

Télécharger "Les Septs Samourais" en illimité a une vitesse de 1000 kbps grïâce aux 14 Jours d'essai gratuit offerts par Usenet.nl!
 
Loading...