Les tabous de l'Histoire - 5&6. - Le réseau Odessa.XviD URL Raccourcie

Télécharger "Les tabous de l'Histoire - 5&6. - Le réseau Odessa.XviD" en illimité a une vitesse de 1000 kbps grïâce aux 14 Jours d'essai gratuit offerts par Usenet.nl!

Les tabous de l'Histoire - Le réseau Odessa






Origine : France
Réalisateur : Arte
Genre : Reportage
Durée 1ère partie : 0h 53min
Durée 2ème partie : 1h 02min
Année de production : 2008




Inspirée des travaux de l'historien Marc Ferro, la série les Tabous de l'histoire porte un regard curieux sur quelques sujets mal connus et apporte ainsi un éclairage nouveau sur certains aspects de l'histoire récente, notamment sur les racines culturelles des grands totalitarismes du XXe siècle.

05 & 06 - Le réseau Odessa

En 1946, l'enthousiasme gagne le peuple argentin avec l'ascension au pouvoir de Juan Peron et de sa femme Evita. Cette dernière a joué un rôle diplomatique international et a été l'idole des déshérités. Evita meurt en 1952. Au renversement du régime en 1955, son corps est transféré secrètement à Milan où il est provisoirement enterré. En 1972, le corps d'Evita est de retour en Argentine. De nombreuses enquêtes de journalistes attestent alors qu'à l'intérieur de l'imposant cercueil se trouvent de l'argent et de l'or en provenance du trésor des nazis en transfert entre la Suisse et l'Argentine. Les fonds proviendraient en effet de la banque privée de Genève.
Le 10 août 1944, les nazis réfléchissent à Strasbourg, dans la Maison Rouge, à un moyen de s'échapper. Trois itinéraires de fuite principaux sont définis. La réunion entérine surtout la naissance de l'Odessa, organisation des anciens membres de la SS. On distingue trois ramifications distinctes de l'immigration nazie vers l'Amérique du Sud et le Moyen-Orient. Près de 5000 chefs nazis auraient ainsi réussi à s'échapper.




Qualité : TvRip
Format : Avi
Langue : Français
Codec vidéo : XviD
Codec audio : MP3




Découpage : Aucun
Tailles des fichiers : 1 x 335 Mo + 1 x 453 Mo




↓↓↓ Les tabous de l'Histoire - 5&6. - Le réseau Odessa.XviD ↓↓↓
 

www.usenet.nl

Seeders 6 Leechers 0 Téléchargements 398
 
Télécharger Dire merci! Signaler
Voir la liste des membres qui vous remercient
↑↑↑ Les tabous de l'Histoire - 5&6. - Le réseau Odessa.XviD ↑↑↑

Informations

Nom Les tabous de l'Histoire - 5&6. - Le réseau Odessa.XviD
Torrent Les tabous de l_histoire - 5&6. Le reseau Odessa.XviD.torrent
Catégorie Documentaire
Taille totale 838.67 MB
Info Hash eaa1c10cded4692e710098f29ae739712c293e7a
Uploadé par DiskDor
Uploadé le 2013-04-01 20:30:50 (+00:00)
Visites 517
évaluation 4.8/5 (18 votes)

Liste des Fichiers

Path Size
Les tabous de l_histoire - 5&6. Le reseau Odessa.XviD/Les tabous de l_histoire - 6. Le reseau Odessa 2ème partie.XviD.avi 453.08 MB
Les tabous de l_histoire - 5&6. Le reseau Odessa.XviD/Les tabous de l_histoire - 5. Le reseau Odessa 1ère partie.XviD.avi 385.59 MB
Les tabous de l_histoire - 5&6. Le reseau Odessa.XviD/Les tabous de l_histoire - 5&6. Le reseau Odessa.nfo 5.31 KB

Voir le NFO

General
Complete name                            : Les tabous de l_histoire - 5. Le reseau Odessa 1ère partie.XviD.avi
Format                                   : AVI
Format/Info                              : Audio Video Interleave
File size                                : 386 MiB
Duration                                 : 53mn 2s
Overall bit rate                         : 1 016 Kbps

Video
ID                                       : 0
Format                                   : MPEG-4 Visual
Format profile                           : Advanced Simple@L5
Format settings, BVOP                    : 2
Format settings, QPel                    : No
Format settings, GMC                     : No warppoints
Format settings, Matrix                  : Default (H.263)
Muxing mode                              : Packed bitstream
Codec ID                                 : XVID
Codec ID/Hint                            : XviD
Duration                                 : 53mn 2s
Bit rate                                 : 895 Kbps
Width                                    : 576 pixels
Height                                   : 432 pixels
Display aspect ratio                     : 4:3
Frame rate                               : 25.000 fps
Color space                              : YUV
Chroma subsampling                       : 4:2:0
Bit depth                                : 8 bits
Scan type                                : Progressive
Compression mode                         : Lossy
Bits/(Pixel*Frame)                       : 0.144
Stream size                              : 339 MiB (88%)
Writing library                          : XviD 1.2.1 (UTC 2008-12-04)

Audio
ID                                       : 1
Format                                   : MPEG Audio
Format version                           : Version 1
Format profile                           : Layer 3
Mode                                     : Joint stereo
Mode extension                           : MS Stereo
Codec ID                                 : 55
Codec ID/Hint                            : MP3
Duration                                 : 53mn 2s
Bit rate mode                            : Constant
Bit rate                                 : 112 Kbps
Channel(s)                               : 2 channels
Sampling rate                            : 48.0 KHz
Compression mode                         : Lossy
Stream size                              : 42.5 MiB (11%)
Alignment                                : Aligned on interleaves
Interleave, duration                     : 40 ms (1.00 video frame)
Interleave, preload duration             : 504 ms





-----------------------------------------------------------------------------------------------------------------




General
Complete name                            : Les tabous de l_histoire - 6. Le reseau Odessa 2ème partie.XviD.avi
Format                                   : AVI
Format/Info                              : Audio Video Interleave
File size                                : 453 MiB
Duration                                 : 1h 2mn
Overall bit rate                         : 1 016 Kbps

Video
ID                                       : 0
Format                                   : MPEG-4 Visual
Format profile                           : Advanced Simple@L5
Format settings, BVOP                    : 2
Format settings, QPel                    : No
Format settings, GMC                     : No warppoints
Format settings, Matrix                  : Default (H.263)
Muxing mode                              : Packed bitstream
Codec ID                                 : XVID
Codec ID/Hint                            : XviD
Duration                                 : 1h 2mn
Bit rate                                 : 895 Kbps
Width                                    : 576 pixels
Height                                   : 432 pixels
Display aspect ratio                     : 4:3
Frame rate                               : 25.000 fps
Color space                              : YUV
Chroma subsampling                       : 4:2:0
Bit depth                                : 8 bits
Scan type                                : Progressive
Compression mode                         : Lossy
Bits/(Pixel*Frame)                       : 0.144
Stream size                              : 399 MiB (88%)
Writing library                          : XviD 1.2.1 (UTC 2008-12-04)

Audio
ID                                       : 1
Format                                   : MPEG Audio
Format version                           : Version 1
Format profile                           : Layer 3
Mode                                     : Joint stereo
Codec ID                                 : 55
Codec ID/Hint                            : MP3
Duration                                 : 1h 2mn
Bit rate mode                            : Constant
Bit rate                                 : 112 Kbps
Channel(s)                               : 2 channels
Sampling rate                            : 48.0 KHz
Compression mode                         : Lossy
Stream size                              : 49.9 MiB (11%)
Alignment                                : Aligned on interleaves
Interleave, duration                     : 40 ms (1.00 video frame)
Interleave, preload duration             : 504 ms

TÉLÉCHARGER "Les tabous de l'Histoire - 5&6. - Le réseau Odessa.XviD" 20x PLUS VITE AVEC USENET
Anonyme&Rapide – 14 jours gratuits

Ajouter un commentaire

Télécharger "Les tabous de l'Histoire - 5&6. - Le réseau Odessa.XviD" en illimité a une vitesse de 1000 kbps grïâce aux 14 Jours d'essai gratuit offerts par Usenet.nl!
 
Loading...