Les Visiteurs 1 & 2 DVDR URL Raccourcie

Télécharger "Les Visiteurs 1 & 2 DVDR" en illimité a une vitesse de 1000 kbps grïâce aux 14 Jours d'essai gratuit offerts par Usenet.nl!
Les Visiteurs 1 & 2 DVD-RIP




Les 2 films complets en DVD (Video_TF).

Merci de rester en seed !!!

MasterG



↓↓↓ Les Visiteurs 1 & 2 DVDR ↓↓↓
 

www.usenet.nl

Seeders 6 Leechers 1 Téléchargements 4619
 
Télécharger Dire merci! Signaler
Voir la liste des membres qui vous remercient
↑↑↑ Les Visiteurs 1 & 2 DVDR ↑↑↑

Informations

Nom Les Visiteurs 1 & 2 DVDR
Torrent Les Visiteurs 1 & 2 DVD-RIP.torrent
Catégorie Film
Taille totale 8.04 GB
Info Hash 37c991368e2cd57fc181b040406ec6a2afb1a181
Uploadé par MasterG44003
Uploadé le 2010-05-22 02:21:21 (+00:00)
Visites 4101
évaluation 5/5 (24 votes)

Liste des Fichiers

Path Size
Les Visiteurs 1/VTS_01_1.VOB 1024 MB
Les Visiteurs 1/VTS_01_2.VOB 1024 MB
Les Visiteurs 1/VTS_01_3.VOB 1024 MB
Les Visiteurs 1/VTS_01_4.VOB 1024 MB
Les Visiteurs 1/VTS_01_5.VOB 16.54 MB
Les Visiteurs 1/VTS_01_0.BUP 66 KB
Les Visiteurs 1/VTS_01_0.IFO 66 KB
Les Visiteurs 1/VIDEO_TS.BUP 6 KB
Les Visiteurs 1/VIDEO_TS.IFO 6 KB
Les Visiteurs 2/VTS_01_1.VOB 1024 MB
Les Visiteurs 2/VTS_01_2.VOB 1024 MB
Les Visiteurs 2/VTS_01_3.VOB 1024 MB
Les Visiteurs 2/VTS_01_4.VOB 1024 MB
Les Visiteurs 2/VTS_01_5.VOB 22.21 MB
Les Visiteurs 2/VTS_01_0.BUP 68 KB
Les Visiteurs 2/VTS_01_0.IFO 68 KB
Les Visiteurs 2/VIDEO_TS.BUP 6 KB
Les Visiteurs 2/VIDEO_TS.IFO 6 KB
Visiteurs NFO.nfo 25.64 KB

Voir le NFO

General
Complete name                    : C:\Les Visiteurs 1 & 2 DVD-RIP\Les Visiteurs 1\VIDEO_TS.BUP
Format                           : DVD Video
Format profile                   : Menu
File size                        : 6.00 KiB

Video
ID                               : 224 (0xE0)
Format                           : MPEG Video
Format version                   : Version 2
Bit rate mode                    : Variable
Width                            : 720 pixels
Height                           : 480 pixels
Display aspect ratio             : 4:3
Frame rate                       : 29.970 fps
Standard                         : NTSC

General
Complete name                    : C:\Les Visiteurs 1 & 2 DVD-RIP\Les Visiteurs 1\VIDEO_TS.IFO
Format                           : DVD Video
Format profile                   : Menu
File size                        : 6.00 KiB

Video
ID                               : 224 (0xE0)
Format                           : MPEG Video
Format version                   : Version 2
Bit rate mode                    : Variable
Width                            : 720 pixels
Height                           : 480 pixels
Display aspect ratio             : 4:3
Frame rate                       : 29.970 fps
Standard                         : NTSC

General
Complete name                    : C:\Les Visiteurs 1 & 2 DVD-RIP\Les Visiteurs 1\VTS_01_0.BUP
Format                           : DVD Video
Format profile                   : Program
File size                        : 66.0 KiB

Video
ID                               : 224 (0xE0)
Format                           : MPEG Video
Format version                   : Version 2
Bit rate mode                    : Variable
Width                            : 720 pixels
Height                           : 480 pixels
Display aspect ratio             : 16:9
Frame rate                       : 29.970 fps
Standard                         : NTSC

Audio
ID                               : 128 (0x80)
Format                           : AC-3
Format/Info                      : Audio Coding 3
Channel(s)                       : 2 channels
Sampling rate                    : 48.0 KHz
Language                         : French

Menu
List (Audio)                     : 0

General
Complete name                    : C:\Les Visiteurs 1 & 2 DVD-RIP\Les Visiteurs 1\VTS_01_0.IFO
Format                           : DVD Video
Format profile                   : Program
File size                        : 66.0 KiB

Video
ID                               : 224 (0xE0)
Format                           : MPEG Video
Format version                   : Version 2
Bit rate mode                    : Variable
Width                            : 720 pixels
Height                           : 480 pixels
Display aspect ratio             : 16:9
Frame rate                       : 29.970 fps
Standard                         : NTSC

Audio
ID                               : 128 (0x80)
Format                           : AC-3
Format/Info                      : Audio Coding 3
Channel(s)                       : 2 channels
Sampling rate                    : 48.0 KHz
Language                         : French

Menu
List (Audio)                     : 0

General
Complete name                    : C:\Les Visiteurs 1 & 2 DVD-RIP\Les Visiteurs 1\VTS_01_1.VOB
Format                           : MPEG-PS
File size                        : 1 024 MiB
Duration                         : 25mn 37s
Overall bit rate                 : 5 587 Kbps

Video
ID                               : 224 (0xE0)
Format                           : MPEG Video
Format version                   : Version 2
Format profile                   : Main@Main
Format settings, BVOP            : Yes
Format settings, Matrix          : Default
Format settings, GOP             : M=3, N=15
Duration                         : 25mn 37s
Bit rate mode                    : Variable
Bit rate                         : 5 091 Kbps
Nominal bit rate                 : 5 500 Kbps
Width                            : 720 pixels
Height                           : 480 pixels
Display aspect ratio             : 16:9
Frame rate                       : 29.970 fps
Standard                         : NTSC
Color space                      : YUV
Chroma subsampling               : 4:2:0
Bit depth                        : 8 bits
Scan type                        : Interlaced
Scan order                       : Top Field First
Bits/(Pixel*Frame)               : 0.492
Stream size                      : 933 MiB (91%)

Audio
ID                               : 128 (0x80)
Format                           : AC-3
Format/Info                      : Audio Coding 3
Mode extension                   : CM (complete main)
Duration                         : 25mn 37s
Bit rate mode                    : Constant
Bit rate                         : 384 Kbps
Channel(s)                       : 2 channels
Channel positions                : Front: L R
Sampling rate                    : 48.0 KHz
Video delay                      : -66ms
Stream size                      : 70.4 MiB (7%)

Menu

General
Complete name                    : C:\Les Visiteurs 1 & 2 DVD-RIP\Les Visiteurs 1\VTS_01_2.VOB
Format                           : MPEG-PS
File size                        : 1 024 MiB
Duration                         : 25mn 27s
Overall bit rate                 : 5 622 Kbps

Video
ID                               : 224 (0xE0)
Format                           : MPEG Video
Format version                   : Version 2
Format profile                   : Main@Main
Format settings, BVOP            : Yes
Format settings, Matrix          : Default
Format settings, GOP             : M=3, N=15
Duration                         : 25mn 27s
Bit rate mode                    : Variable
Bit rate                         : 5 126 Kbps
Nominal bit rate                 : 5 500 Kbps
Width                            : 720 pixels
Height                           : 480 pixels
Display aspect ratio             : 16:9
Frame rate                       : 29.970 fps
Standard                         : NTSC
Color space                      : YUV
Chroma subsampling               : 4:2:0
Bit depth                        : 8 bits
Scan type                        : Interlaced
Scan order                       : Top Field First
Bits/(Pixel*Frame)               : 0.495
Stream size                      : 933 MiB (91%)

Audio
ID                               : 128 (0x80)
Format                           : AC-3
Format/Info                      : Audio Coding 3
Mode extension                   : CM (complete main)
Duration                         : 25mn 27s
Bit rate mode                    : Constant
Bit rate                         : 384 Kbps
Channel(s)                       : 2 channels
Channel positions                : Front: L R
Sampling rate                    : 48.0 KHz
Video delay                      : -631ms
Stream size                      : 69.9 MiB (7%)

Menu

General
Complete name                    : C:\Les Visiteurs 1 & 2 DVD-RIP\Les Visiteurs 1\VTS_01_3.VOB
Format                           : MPEG-PS
File size                        : 1 024 MiB
Duration                         : 25mn 27s
Overall bit rate                 : 5 622 Kbps

Video
ID                               : 224 (0xE0)
Format                           : MPEG Video
Format version                   : Version 2
Format profile                   : Main@Main
Format settings, BVOP            : Yes
Format settings, Matrix          : Default
Duration                         : 25mn 27s
Bit rate mode                    : Variable
Bit rate                         : 5 126 Kbps
Nominal bit rate                 : 5 500 Kbps
Width                            : 720 pixels
Height                           : 480 pixels
Display aspect ratio             : 16:9
Frame rate                       : 29.970 fps
Standard                         : NTSC
Color space                      : YUV
Chroma subsampling               : 4:2:0
Bit depth                        : 8 bits
Scan type                        : Interlaced
Scan order                       : Top Field First
Bits/(Pixel*Frame)               : 0.495
Stream size                      : 933 MiB (91%)

Audio
ID                               : 128 (0x80)
Format                           : AC-3
Format/Info                      : Audio Coding 3
Mode extension                   : CM (complete main)
Duration                         : 25mn 27s
Bit rate mode                    : Constant
Bit rate                         : 384 Kbps
Channel(s)                       : 2 channels
Channel positions                : Front: L R
Sampling rate                    : 48.0 KHz
Video delay                      : -654ms
Stream size                      : 69.9 MiB (7%)

Menu

General
Complete name                    : C:\Les Visiteurs 1 & 2 DVD-RIP\Les Visiteurs 1\VTS_01_4.VOB
Format                           : MPEG-PS
File size                        : 1 024 MiB
Duration                         : 25mn 27s
Overall bit rate                 : 5 622 Kbps

Video
ID                               : 224 (0xE0)
Format                           : MPEG Video
Format version                   : Version 2
Format profile                   : Main@Main
Format settings, BVOP            : Yes
Format settings, Matrix          : Default
Format settings, GOP             : M=3, N=15
Duration                         : 25mn 27s
Bit rate mode                    : Variable
Bit rate                         : 5 126 Kbps
Nominal bit rate                 : 5 500 Kbps
Width                            : 720 pixels
Height                           : 480 pixels
Display aspect ratio             : 16:9
Frame rate                       : 29.970 fps
Standard                         : NTSC
Color space                      : YUV
Chroma subsampling               : 4:2:0
Bit depth                        : 8 bits
Scan type                        : Interlaced
Scan order                       : Top Field First
Bits/(Pixel*Frame)               : 0.495
Stream size                      : 933 MiB (91%)

Audio
ID                               : 128 (0x80)
Format                           : AC-3
Format/Info                      : Audio Coding 3
Mode extension                   : CM (complete main)
Duration                         : 25mn 27s
Bit rate mode                    : Constant
Bit rate                         : 384 Kbps
Channel(s)                       : 2 channels
Channel positions                : Front: L R
Sampling rate                    : 48.0 KHz
Video delay                      : -640ms
Stream size                      : 69.9 MiB (7%)

Menu

General
Complete name                    : C:\Les Visiteurs 1 & 2 DVD-RIP\Les Visiteurs 1\VTS_01_5.VOB
Format                           : MPEG-PS
File size                        : 16.5 MiB
Duration                         : 24s 672ms
Overall bit rate                 : 5 623 Kbps

Video
ID                               : 224 (0xE0)
Format                           : MPEG Video
Format version                   : Version 2
Format profile                   : Main@Main
Format settings, BVOP            : Yes
Format settings, Matrix          : Default
Format settings, GOP             : M=3, N=15
Duration                         : 24s 157ms
Bit rate mode                    : Variable
Bit rate                         : 5 127 Kbps
Nominal bit rate                 : 5 500 Kbps
Width                            : 720 pixels
Height                           : 480 pixels
Display aspect ratio             : 16:9
Frame rate                       : 29.970 fps
Standard                         : NTSC
Color space                      : YUV
Chroma subsampling               : 4:2:0
Bit depth                        : 8 bits
Scan type                        : Interlaced
Scan order                       : Top Field First
Bits/(Pixel*Frame)               : 0.495
Stream size                      : 14.8 MiB (89%)

Audio
ID                               : 128 (0x80)
Format                           : AC-3
Format/Info                      : Audio Coding 3
Mode extension                   : CM (complete main)
Duration                         : 24s 672ms
Bit rate mode                    : Constant
Bit rate                         : 384 Kbps
Channel(s)                       : 2 channels
Channel positions                : Front: L R
Sampling rate                    : 48.0 KHz
Video delay                      : -631ms
Stream size                      : 1.13 MiB (7%)

Menu

General
Complete name                    : C:\Les Visiteurs 1 & 2 DVD-RIP\Les Visiteurs 1 & 2 DVD-RIP.torrent
File size                        : 41.7 KiB

General
Complete name                    : C:\Les Visiteurs 1 & 2 DVD-RIP\Les Visiteurs 2\folder.jpg
Format                           : JPEG
File size                        : 202 KiB

Image
Format                           : JPEG
Width                            : 539 pixels
Height                           : 723 pixels
Color space                      : 8

General
Complete name                    : C:\Les Visiteurs 1 & 2 DVD-RIP\Les Visiteurs 2\Thumbs.db
File size                        : 24.0 KiB

General
Complete name                    : C:\Les Visiteurs 1 & 2 DVD-RIP\Les Visiteurs 2\VIDEO_TS.BUP
Format                           : DVD Video
Format profile                   : Menu
File size                        : 6.00 KiB

Video
ID                               : 224 (0xE0)
Format                           : MPEG Video
Format version                   : Version 2
Bit rate mode                    : Variable
Width                            : 720 pixels
Height                           : 480 pixels
Display aspect ratio             : 4:3
Frame rate                       : 29.970 fps
Standard                         : NTSC

General
Complete name                    : C:\Les Visiteurs 1 & 2 DVD-RIP\Les Visiteurs 2\VIDEO_TS.IFO
Format                           : DVD Video
Format profile                   : Menu
File size                        : 6.00 KiB

Video
ID                               : 224 (0xE0)
Format                           : MPEG Video
Format version                   : Version 2
Bit rate mode                    : Variable
Width                            : 720 pixels
Height                           : 480 pixels
Display aspect ratio             : 4:3
Frame rate                       : 29.970 fps
Standard                         : NTSC

General
Complete name                    : C:\Les Visiteurs 1 & 2 DVD-RIP\Les Visiteurs 2\VTS_01_0.BUP
Format                           : DVD Video
Format profile                   : Program
File size                        : 68.0 KiB

Video
ID                               : 224 (0xE0)
Format                           : MPEG Video
Format version                   : Version 2
Bit rate mode                    : Variable
Width                            : 720 pixels
Height                           : 480 pixels
Display aspect ratio             : 16:9
Frame rate                       : 29.970 fps
Standard                         : NTSC

Audio
ID                               : 128 (0x80)
Format                           : AC-3
Format/Info                      : Audio Coding 3
Channel(s)                       : 6 channels
Sampling rate                    : 48.0 KHz
Language                         : French

Menu
List (Audio)                     : 0

General
Complete name                    : C:\Les Visiteurs 1 & 2 DVD-RIP\Les Visiteurs 2\VTS_01_0.IFO
Format                           : DVD Video
Format profile                   : Program
File size                        : 68.0 KiB

Video
ID                               : 224 (0xE0)
Format                           : MPEG Video
Format version                   : Version 2
Bit rate mode                    : Variable
Width                            : 720 pixels
Height                           : 480 pixels
Display aspect ratio             : 16:9
Frame rate                       : 29.970 fps
Standard                         : NTSC

Audio
ID                               : 128 (0x80)
Format                           : AC-3
Format/Info                      : Audio Coding 3
Channel(s)                       : 6 channels
Sampling rate                    : 48.0 KHz
Language                         : French

Menu
List (Audio)                     : 0

General
Complete name                    : C:\Les Visiteurs 1 & 2 DVD-RIP\Les Visiteurs 2\VTS_01_1.VOB
Format                           : MPEG-PS
File size                        : 1 024 MiB
Duration                         : 28mn 5s
Overall bit rate                 : 5 097 Kbps

Video
ID                               : 224 (0xE0)
Format                           : MPEG Video
Format version                   : Version 2
Format profile                   : Main@Main
Format settings, BVOP            : Yes
Format settings, Matrix          : Default
Format settings, GOP             : M=3, N=15
Duration                         : 28mn 5s
Bit rate mode                    : Variable
Bit rate                         : 4 547 Kbps
Nominal bit rate                 : 4 800 Kbps
Width                            : 720 pixels
Height                           : 480 pixels
Display aspect ratio             : 16:9
Frame rate                       : 29.970 fps
Standard                         : NTSC
Color space                      : YUV
Chroma subsampling               : 4:2:0
Bit depth                        : 8 bits
Scan type                        : Interlaced
Scan order                       : Top Field First
Bits/(Pixel*Frame)               : 0.439
Stream size                      : 914 MiB (89%)

Audio
ID                               : 128 (0x80)
Format                           : AC-3
Format/Info                      : Audio Coding 3
Mode extension                   : CM (complete main)
Duration                         : 28mn 5s
Bit rate mode                    : Constant
Bit rate                         : 448 Kbps
Channel(s)                       : 6 channels
Channel positions                : Front: L C R, Side: L R, LFE
Sampling rate                    : 48.0 KHz
Video delay                      : -66ms
Stream size                      : 90.0 MiB (9%)

Menu

General
Complete name                    : C:\Les Visiteurs 1 & 2 DVD-RIP\Les Visiteurs 2\VTS_01_2.VOB
Format                           : MPEG-PS
File size                        : 1 024 MiB
Duration                         : 27mn 56s
Overall bit rate                 : 5 125 Kbps

Video
ID                               : 224 (0xE0)
Format                           : MPEG Video
Format version                   : Version 2
Format profile                   : Main@Main
Format settings, BVOP            : Yes
Format settings, Matrix          : Default
Format settings, GOP             : M=3, N=15
Duration                         : 27mn 55s
Bit rate mode                    : Variable
Bit rate                         : 4 800 Kbps
Width                            : 720 pixels
Height                           : 480 pixels
Display aspect ratio             : 16:9
Frame rate                       : 29.970 fps
Standard                         : NTSC
Color space                      : YUV
Chroma subsampling               : 4:2:0
Bit depth                        : 8 bits
Scan type                        : Interlaced
Scan order                       : Top Field First
Bits/(Pixel*Frame)               : 0.463
Stream size                      : 914 MiB (89%)

Audio
ID                               : 128 (0x80)
Format                           : AC-3
Format/Info                      : Audio Coding 3
Mode extension                   : CM (complete main)
Duration                         : 27mn 56s
Bit rate mode                    : Constant
Bit rate                         : 448 Kbps
Channel(s)                       : 6 channels
Channel positions                : Front: L C R, Side: L R, LFE
Sampling rate                    : 48.0 KHz
Video delay                      : -566ms
Stream size                      : 89.5 MiB (9%)

Menu

General
Complete name                    : C:\Les Visiteurs 1 & 2 DVD-RIP\Les Visiteurs 2\VTS_01_3.VOB
Format                           : MPEG-PS
File size                        : 1 024 MiB
Duration                         : 27mn 56s
Overall bit rate                 : 5 125 Kbps

Video
ID                               : 224 (0xE0)
Format                           : MPEG Video
Format version                   : Version 2
Format profile                   : Main@Main
Format settings, BVOP            : Yes
Format settings, Matrix          : Default
Duration                         : 27mn 56s
Bit rate mode                    : Variable
Bit rate                         : 4 800 Kbps
Width                            : 720 pixels
Height                           : 480 pixels
Display aspect ratio             : 16:9
Frame rate                       : 29.970 fps
Standard                         : NTSC
Color space                      : YUV
Chroma subsampling               : 4:2:0
Bit depth                        : 8 bits
Scan type                        : Interlaced
Scan order                       : Top Field First
Bits/(Pixel*Frame)               : 0.463
Stream size                      : 914 MiB (89%)

Audio
ID                               : 128 (0x80)
Format                           : AC-3
Format/Info                      : Audio Coding 3
Mode extension                   : CM (complete main)
Duration                         : 27mn 56s
Bit rate mode                    : Constant
Bit rate                         : 448 Kbps
Channel(s)                       : 6 channels
Channel positions                : Front: L C R, Side: L R, LFE
Sampling rate                    : 48.0 KHz
Video delay                      : -213ms
Stream size                      : 89.5 MiB (9%)

Menu

General
Complete name                    : C:\Les Visiteurs 1 & 2 DVD-RIP\Les Visiteurs 2\VTS_01_4.VOB
Format                           : MPEG-PS
File size                        : 1 024 MiB
Duration                         : 27mn 55s
Overall bit rate                 : 5 126 Kbps

Video
ID                               : 224 (0xE0)
Format                           : MPEG Video
Format version                   : Version 2
Format profile                   : Main@Main
Format settings, BVOP            : Yes
Format settings, Matrix          : Default
Format settings, GOP             : M=3, N=15
Duration                         : 27mn 55s
Bit rate mode                    : Variable
Bit rate                         : 4 800 Kbps
Width                            : 720 pixels
Height                           : 480 pixels
Display aspect ratio             : 16:9
Frame rate                       : 29.970 fps
Standard                         : NTSC
Color space                      : YUV
Chroma subsampling               : 4:2:0
Bit depth                        : 8 bits
Scan type                        : Interlaced
Scan order                       : Top Field First
Bits/(Pixel*Frame)               : 0.463
Stream size                      : 914 MiB (89%)

Audio
ID                               : 128 (0x80)
Format                           : AC-3
Format/Info                      : Audio Coding 3
Mode extension                   : CM (complete main)
Duration                         : 27mn 55s
Bit rate mode                    : Constant
Bit rate                         : 448 Kbps
Channel(s)                       : 6 channels
Channel positions                : Front: L C R, Side: L R, LFE
Sampling rate                    : 48.0 KHz
Video delay                      : -696ms
Stream size                      : 89.5 MiB (9%)

Menu

General
Complete name                    : C:\Les Visiteurs 1 & 2 DVD-RIP\Les Visiteurs 2\VTS_01_5.VOB
Format                           : MPEG-PS
File size                        : 22.2 MiB
Duration                         : 37s 56ms
Overall bit rate                 : 5 029 Kbps

Video
ID                               : 224 (0xE0)
Format                           : MPEG Video
Format version                   : Version 2
Format profile                   : Main@Main
Format settings, BVOP            : Yes
Format settings, Matrix          : Default
Format settings, GOP             : M=3, N=15
Duration                         : 36s 669ms
Bit rate mode                    : Variable
Bit rate                         : 4 481 Kbps
Nominal bit rate                 : 4 800 Kbps
Width                            : 720 pixels
Height                           : 480 pixels
Display aspect ratio             : 16:9
Frame rate                       : 29.970 fps
Standard                         : NTSC
Color space                      : YUV
Chroma subsampling               : 4:2:0
Bit depth                        : 8 bits
Scan type                        : Interlaced
Scan order                       : Top Field First
Bits/(Pixel*Frame)               : 0.433
Stream size                      : 19.6 MiB (88%)

Audio
ID                               : 128 (0x80)
Format                           : AC-3
Format/Info                      : Audio Coding 3
Mode extension                   : CM (complete main)
Duration                         : 37s 56ms
Bit rate mode                    : Constant
Bit rate                         : 448 Kbps
Channel(s)                       : 6 channels
Channel positions                : Front: L C R, Side: L R, LFE
Sampling rate                    : 48.0 KHz
Video delay                      : -498ms
Stream size                      : 1.98 MiB (9%)

Menu

TÉLÉCHARGER "Les Visiteurs 1 & 2 DVDR" 20x PLUS VITE AVEC USENET
Anonyme&Rapide – 14 jours gratuits

Ajouter un commentaire

1 - 20 | 21 - 35
MasterG44003 Spider Pig. ↑ 647 GB ↓ 238.17 GB Ratio: 2,71

@folan: C'est un DVD rip sans aucune compression audio - vidéo ni retouche. 1:1, avec les menus et autres.

Aussi, libre a toi d'aller l'acheter pour comparer la qualite.. ou upload en un meilleur.

folan ↑ 3 TB ↓ 3.14 TB Ratio: 0,95

Fonctionne très bien,mais pour du dvd la qualité vidéo est pas au top.

acar ↑ 1.55 TB ↓ 1.63 TB Ratio: 0,95

Je prends ! Un bon classique en dvd, c'est mieux.
Merci encore.

pandrasan Also sprach Zarathustra ↑ 301.53 GB ↓ 239.12 GB Ratio: 1,26

mortecouille, calamitas ! messire, on a retrouvaillé des galettes rondes sataniques !

mille merci bon seigneur MasterG44003, tu es un brave et tu es bien bon ! hosanna sur toi !

MasterG44003 Spider Pig. ↑ 647 GB ↓ 238.17 GB Ratio: 2,71

MESSAGE DE L'UPLOADEUR:  J'utilise Windows MediaCenter pour lire ce type de fichier.  J'ai une base de donnée de 4-500 DVD dans ce format et ca fonctionne tres bien depuis plusieurs années.

Sinon vous pouvez le graver avec CloneDVD et ca va donner un DVD complet comme au club video, vous pouvez ensuite le transformer si vous le voulez. (Moi je ne compresse jamais les DVD)

Bon Film !

Ah.. et pour répondre a certain commentaires; effectivement (Merci Matthib666) les sous-titres de certains passage en "vieux francais" sont là par défaut dans le DVD original qui se retrouve sur les tablettes en magasins... Je vous encourage à aller l'acheter pour confirmer.

Dernière édition par MasterG44003 le 2012-08-02 22:44:43

renardeau29 ↑ 317.84 GB ↓ 104.96 GB Ratio: 3,02

les quelles de tout les fichiers  le bon merci d'avance

chetemis ↑ 141.69 GB ↓ 99.49 GB Ratio: 1,42

merci

titililine ↑ 860.49 GB ↓ 180.55 GB Ratio: 4,76

Merci, c'est sympa...

promethes ↑ 6.34 TB ↓ 1.57 TB Ratio: 4,03

Merci pour le travail effectué...

Blackos1 ↑ 3.47 TB ↓ 3.99 TB Ratio: 0,86

Coudon vous parler p-e le truefrench mais vous etes pas capable d'enlever les sous-titres d'un film en passant par le lecteur

sadi1 ↑ 550.54 GB ↓ 694.09 GB Ratio: 0,79

Merci mais il y a un petit hic: certaines répliques en pseudo-vieux français sont sous-titrées. C'est très énervant et franchement insultant. Tu aurais pu éviter, ou en tout cas prévenir car j'ai téléchargé pour rien.

LUIGGINA ↑ 1.81 TB ↓ 1.16 TB Ratio: 1,55

MERCI +++

Tiloulie35 ↑ 317.75 GB ↓ 281.69 GB Ratio: 1,12

Mdr, ça me fait bien plaisir de récupérer ces 2 morceaux d'humour bien de chez nous ! Go on !

thib25 ↑ 427.32 GB ↓ 185.75 GB Ratio: 2,30

Parfait, merci!!!! Ca fait plaisir de trouver les vidéos en DVD-R!!!

mitramand ↑ 154.93 GB ↓ 164.16 GB Ratio: 0,94

SUPER MERCI MERCI

jojo31160 ↑ 1.96 TB ↓ 255.39 GB Ratio: 7,84

merci

MasterG44003 Spider Pig. ↑ 647 GB ↓ 238.17 GB Ratio: 2,71

J'ai modifié la catégorie, merci !

matisetmael ↑ 1.33 TB ↓ 688.74 GB Ratio: 1,97

merci

SUZILOO Paix ↑ 980.74 GB ↓ 580.47 GB Ratio: 1,68

Sympas
Merci

Nostromo777 ↑ 624.98 GB ↓ 705.33 GB Ratio: 0,88

merci

1 - 20 | 21 - 35
Télécharger "Les Visiteurs 1 & 2 DVDR" en illimité a une vitesse de 1000 kbps grïâce aux 14 Jours d'essai gratuit offerts par Usenet.nl!
 
Loading...