Lottery Ticket 2010 FRENCH DVDRIP XVID-VH URL Raccourcie

Télécharger "Lottery Ticket 2010 FRENCH DVDRIP XVID-VH" en illimité a une vitesse de 1000 kbps grïâce aux 14 Jours d'essai gratuit offerts par Usenet.nl!

(¯`·._.·Lottery Ticket·._.·´¯







Origine du film : U.S.A.
Réalisateur : Erik White
Acteurs : Lil' Bow Wow, Ice Cube, Brandon T. Jackson, Mike Epps, Teairra Mari
Genre : Comédie
Durée : 1h39min
Date de sortie : Aucune information ...
Année de production : 2009
Titre Original : Lottery Ticket
Critiques Spectateurs : /5
Critiques Presse : /5
Bande annonce :

bande annonce disponible pour ce film ...



Un jeune homme doit survivre à un weekend de trois jours après que ses voisins opportunistes aient découvert qu'il avait un ticket de loterie gagnant.



 



Qualité : DVDRiP
Format : AVi
Langue : Français
Sous-titre : Autre ...
Codec vidéo : DivX 866 Kbps
Codec audio : MP3 126 Kbps
Hébergeur : Autre...
Découper avec : Autre ...


Nom de la Release: Lottery Ticket 2010 FRENCH DVDRIP by camel38
Nombre des fichiers: 1 fichier          
Total du post : 710 Mo
 
   



↓↓↓ Lottery Ticket 2010 FRENCH DVDRIP XVID-VH ↓↓↓
 

www.usenet.nl

Seeders 13 Leechers 0 Téléchargements 1939
 
Télécharger Dire merci! Signaler
Voir la liste des membres qui vous remercient
↑↑↑ Lottery Ticket 2010 FRENCH DVDRIP XVID-VH ↑↑↑

Informations

Nom Lottery Ticket 2010 FRENCH DVDRIP XVID-VH
Torrent Lottery Ticket 2010 FRENCH DVDRIP XVID-VH.avi.torrent
Catégorie Film
Taille totale 710.99 MB
Info Hash d4fa0b066d71ccb027431227e85a1bd573ffc793
Uploadé par JohnDoe
Uploadé le 2012-11-07 23:54:45 (+00:00)
Visites 2408
évaluation 4.2/5 (33 votes)

Liste des Fichiers

Path Size
Lottery Ticket 2010 FRENCH DVDRIP XVID-VH.avi 710.99 MB

Voir le NFO

General
Complete name                            : Lottery Ticket 2010 FRENCH DVDRIP XVID-VH.avi
Format                                   : AVI
Format/Info                              : Audio Video Interleave
File size                                : 711 MiB
Duration                                 : 1h 39mn
Overall bit rate                         : 1 003 Kbps
Writing library                          : VirtualDubMod build 2542/release

Video
ID                                       : 0
Format                                   : MPEG-4 Visual
Format profile                           : Advanced Simple@L5
Format settings, BVOP                    : 1
Format settings, QPel                    : No
Format settings, GMC                     : No warppoints
Format settings, Matrix                  : Default (H.263)
Muxing mode                              : Packed bitstream
Codec ID                                 : XVID
Codec ID/Hint                            : XviD
Duration                                 : 1h 39mn
Bit rate                                 : 866 Kbps
Width                                    : 640 pixels
Height                                   : 272 pixels
Display aspect ratio                     : 2.35:1
Frame rate                               : 23.976 fps
Color space                              : YUV
Chroma subsampling                       : 4:2:0
Bit depth                                : 8 bits
Scan type                                : Progressive
Compression mode                         : Lossy
Bits/(Pixel*Frame)                       : 0.207
Stream size                              : 614 MiB (86%)
Writing library                          : XviD 1.2.1 (UTC 2008-12-04)

Audio
ID                                       : 1
Format                                   : MPEG Audio
Format version                           : Version 1
Format profile                           : Layer 3
Mode                                     : Joint stereo
Mode extension                           : MS Stereo
Codec ID                                 : 55
Codec ID/Hint                            : MP3
Duration                                 : 1h 39mn
Bit rate mode                            : Constant
Bit rate                                 : 128 Kbps
Channel(s)                               : 2 channels
Sampling rate                            : 48.0 KHz
Compression mode                         : Lossy
Stream size                              : 90.7 MiB (13%)
Alignment                                : Aligned on interleaves
Interleave, duration                     : 42 ms (1.00 video frame)
Interleave, preload duration             : 504 ms
Writing library                          : LAME3.98r
Encoding settings                        : -m j -V 4 -q 2 -lowpass 17 -b 128

TÉLÉCHARGER "Lottery Ticket 2010 FRENCH DVDRIP XVID-VH" 20x PLUS VITE AVEC USENET
Anonyme&Rapide – 14 jours gratuits

Ajouter un commentaire

accelerates ↑ 189.32 GB ↓ 106.55 GB Ratio: 1,77

un peu de seed les gens svp

mralpap ↑ 30.24 GB ↓ 7.09 GB Ratio: 4,26

ce genre de film devient dur a trouver depuis que la mode "hip hop"  est passé ! alors merci

dinocroc42 ↑ 273.21 GB ↓ 137.58 GB Ratio: 1,98

merki

ylg76 ↑ 616.99 GB ↓ 475.74 GB Ratio: 1,29

mdr!!a voir

ylg76 ↑ 616.99 GB ↓ 475.74 GB Ratio: 1,29

a voir!!!!!!

jsthebest ↑ 1.24 TB ↓ 847.62 GB Ratio: 1,49

crevard012 : oui, par contre ya un chien aussi, mais je pense qui est brun o.O

pimisyl

Crevard peut pas poser la question parce que dans les films, il y a l'éternel noir de service. Y sont obligés à Hollywood par la loi !

Par contre, je comprend pas votre hargne. Ce n'est qu'une question. Quand il y a une équipe de foot et qu'il n'y a pas de noir, les journalistes demandent pourquoi. Vous les traitez de fachos et de bouffon ?

Cool attitude demandée, mais pas pratiquée !

zranabe ↑ 2.79 TB ↓ 1.92 TB Ratio: 1,45

Merci beaucoup pour le partage très cool l’ami…lol:
malheureusement la Bêtise dans les actes ou les écris de certain ”crevard012 " n’a pas de limite.
et à eux je dirais, que ce n’est n’y la couleur,n’y la religion qui fait l’homme,  
par ce que franchement, ils ont de la classe ces Renoi s.  
Signée, un blanc d’Afrique de là-bas viennes mes parents:

Malinois

Torrent Ok!
Merci pour ta participation! Bon download aux autres.
N'oubliez pas de remercier! Les uploadeurs travaillent pour vous et assurent ainsi la diversité des fichiers sur t411.
Un merci, un commentaire et rester en seed, ça fait plaisir à l'uploader.

Malinois

Titre du Torrent:
Il faudrait corriger et saisir un titre correct.
Merci de consulter la section dédiée dans les règles d'upload, pour plus de détails.

hugolin34160 ↑ 331.75 GB ↓ 107.96 GB Ratio: 3,07

COOL MERCI POUR LE BOULOT

Rigolus12345 ↑ 364.97 GB ↓ 346.67 GB Ratio: 1,05

a recommandé ! magnifique ce film  

peyoooo ↑ 481.83 GB ↓ 516.98 GB Ratio: 0,93

il faut envoyé un cervo d'urgence à crevard012 qui porte bien son nom de boufon......

KIJE138 ↑ 51.95 GB ↓ 36.31 GB Ratio: 1,43

a mourir de rire

Télécharger "Lottery Ticket 2010 FRENCH DVDRIP XVID-VH" en illimité a une vitesse de 1000 kbps grïâce aux 14 Jours d'essai gratuit offerts par Usenet.nl!
 
Loading...