National geographic - Les coulisses du Vatican URL Raccourcie

Télécharger "National geographic - Les coulisses du Vatican" en illimité a une vitesse de 1000 kbps grïâce aux 14 Jours d'essai gratuit offerts par Usenet.nl!

National Geographic - Les coulisses du Vatican



Documentaire



SYNOPSIS :

Puissance visible et invisible, publique et secrète, le Vatican, enraciné dans son histoire et engagé dans l'avenir, est l'un des états contemporains les plus fascinants. Retrouvez dans ce DVD, l'une des plus anciennes organisations de la planète.




Année de production : 2004
Durée : 47mn
Qualité : TVRip 624x352
Format : avi
Langue : Français
Codec vidéo : Xvid - 899kbps
Codec audio : MP3 - 128kbps



Tailles des fichiers : 1 x 349 Mo



↓↓↓ National geographic - Les coulisses du Vatican ↓↓↓
 

www.usenet.nl

Seeders 3 Leechers 0 Téléchargements 570
 
Télécharger Dire merci! Signaler
Voir la liste des membres qui vous remercient
↑↑↑ National geographic - Les coulisses du Vatican ↑↑↑

Informations

Nom National geographic - Les coulisses du Vatican
Torrent National geographic - Les coulisses du Vatican.torrent
Catégorie Documentaire
Taille totale 349.16 MB
Info Hash 53a3cacf27cf0cb45000098e9a17494b4bc775b7
Uploadé par laurel44
Uploadé le 2013-04-01 06:34:18 (+00:00)
Visites 733
évaluation 4.8/5 (25 votes)

Liste des Fichiers

Path Size
National geographic - Les coulisses du Vatican/National Geographic - Les Coulisses Du Vatican.avi 349.13 MB
National geographic - Les coulisses du Vatican/NatGeoCoulissesVatican.jpg 30.91 KB
National geographic - Les coulisses du Vatican/NationalGeographic-LesCoulissesDuVatican.nfo 2.89 KB

Voir le NFO

Complete name                            : National Geographic - Les Coulisses Du Vatican.avi
Format                                   : AVI
Format/Info                              : Audio Video Interleave
File size                                : 349 MiB
Duration                                 : 47mn 6s
Overall bit rate                         : 1 036 Kbps
Writing application                      : FairUse Wizard - http://fairusewizard.com
Writing library                          : The best and REALLY easy backup tool

Video
ID                                       : 0
Format                                   : MPEG-4 Visual
Format profile                           : Advanced Simple@L5
Format settings, BVOP                    : 1
Format settings, QPel                    : No
Format settings, GMC                     : No warppoints
Format settings, Matrix                  : Default (MPEG)
Muxing mode                              : Packed bitstream
Codec ID                                 : XVID
Codec ID/Hint                            : XviD
Duration                                 : 47mn 6s
Bit rate                                 : 899 Kbps
Width                                    : 624 pixels
Height                                   : 352 pixels
Display aspect ratio                     : 16:9
Frame rate                               : 25.000 fps
Color space                              : YUV
Chroma subsampling                       : 4:2:0
Bit depth                                : 8 bits
Scan type                                : Progressive
Compression mode                         : Lossy
Bits/(Pixel*Frame)                       : 0.164
Stream size                              : 303 MiB (87%)
Writing library                          : XviD 1.2.0.dev47 (UTC 2006-11-01)

Audio
ID                                       : 1
Format                                   : MPEG Audio
Format version                           : Version 1
Format profile                           : Layer 3
Mode                                     : Joint stereo
Mode extension                           : MS Stereo
Codec ID                                 : 55
Codec ID/Hint                            : MP3
Duration                                 : 47mn 6s
Bit rate mode                            : Constant
Bit rate                                 : 128 Kbps
Channel(s)                               : 2 channels
Sampling rate                            : 48.0 KHz
Compression mode                         : Lossy
Stream size                              : 43.1 MiB (12%)
Alignment                                : Aligned on interleaves
Interleave, duration                     : 40 ms (1.00 video frame)
Interleave, preload duration             : 504 ms
Writing library                          : LAME3.97 
Encoding settings                        : -m j -V 4 -q 2 -lowpass 17 -b 128

TÉLÉCHARGER "National geographic - Les coulisses du Vatican" 20x PLUS VITE AVEC USENET
Anonyme&Rapide – 14 jours gratuits

Ajouter un commentaire

Télécharger "National geographic - Les coulisses du Vatican" en illimité a une vitesse de 1000 kbps grïâce aux 14 Jours d'essai gratuit offerts par Usenet.nl!
 
Loading...