torrent411torr
ent411torrent411torren
t411torrent411torrent411to
rrent411torre nt411torr
ent411tor rent411
torrent4 11torr
ent411t orrent
41 1torren t411t
orrent41 1torre nt411t orrent4 11tor
rent411torrent4 11torrent41 1torrent41 1torrent41 1torre
nt411torrent411t orrent411to rrent411torr ent411torren t411t
orrent411torren t411torrent4 11torrent411t orrent411torr ent41
1torrent411to rrent 411tor rent411torren t411torrent4 11tor
ren t411to rrent4 11tor rent 411torr ent411torre nt411
torren t411to rrent4 11torre nt411to rrent
411tor rent411 torre nt411to rrent411 torre
nt411 torrent 411tor rent411 torrent 411to
rrent4 11torre nt411t orrent4 11torre nt411
torre nt411torrent411torren t411tor rent411t orrent
411to rrent411torrent411torre nt411tor rent411t orrent
411to rrent411torrent411torre nt411to rrent411 torren
t411t orrent411torrent411torr ent411t orrent4 11torre
nt411t orren t411torr ent411to rrent4
11torr ent41 1torrent 411torre nt411t
orrent 411to rrent41 1torrent411torr
ent411t orren t411tor rent41 1torren
t411tor rent411
torrent4 11torren
t411torr ent411torr
ent411torr ent411torre
nt411torren t411torrent41
1torrent411torr ent411torrent411t
orrent411torrent411torrent411torrent
411torrent411torrent411torrent
411torrent411torrent

General
Complete name : insektors - 01 - La guitare a Kouleurs.avi
Format : AVI
Format/Info : Audio Video Interleave
File size : 354 MiB
Duration : 10mn 15s
Overall bit rate : 4 818 Kbps
Writing application : transcode-1.1.5

Video
ID : 0
Format : MPEG-4 Visual
Format profile : Advanced Simple@L5
Format settings, BVOP : 1
Format settings, QPel : No
Format settings, GMC : No warppoints
Format settings, Matrix : Default (H.263)
Codec ID : XVID
Codec ID/Hint : XviD
Duration : 10mn 15s
Bit rate : 4 680 Kbps
Width : 720 pixels
Height : 576 pixels
Display aspect ratio : 4:3
Frame rate : 25.000 fps
Standard : PAL
Color space : YUV
Chroma subsampling : 4:2:0
Bit depth : 8 bits
Scan type : Progressive
Compression mode : Lossy
Bits/(Pixel*Frame) : 0.451
Stream size : 343 MiB (97%)
Writing library : XviD 1.2.1 (UTC 2008-12-04)

Audio
ID : 1
Format : MPEG Audio
Format version : Version 1
Format profile : Layer 3
Mode : Joint stereo
Mode extension : MS Stereo
Codec ID : 55
Codec ID/Hint : MP3
Duration : 10mn 15s
Bit rate mode : Constant
Bit rate : 128 Kbps
Channel(s) : 2 channels
Sampling rate : 48.0 KHz
Compression mode : Lossy
Stream size : 9.39 MiB (3%)
Alignment : Split accross interleaves
Interleave, duration : 40 ms (1.00 video frame)
Writing library : LAME3.98.4


 
Loading...