Night Wolf 2010 TRUEFRENCH DVDRip XviD-UTT URL Raccourcie

Télécharger "Night Wolf 2010 TRUEFRENCH DVDRip XviD-UTT" en illimité a une vitesse de 1000 kbps grïâce aux 14 Jours d'essai gratuit offerts par Usenet.nl!

(¯`·._.·[   Night Wolf 2010 Truefrench DVDRip XviD   ]·._.·´¯]





Autre titre : 13 hours.
Réalisateur(s) : Jonathan Glendening
Acteur(s) : Isabella Calthorpe, Tom Felton, Gemma Atkinson, John Lynch, Simon MacCorkindale
Genre : Horreur, Action
Durée : 1h 21mn
Date de sortie : 2010

Bande annonce :







Sarah Tyler retourne chez les siens pour une brève visite, l’environnement familial n’étant pas des plus agréables. L’arrivée d’une forte tempête va forcer Sarah, ses frères ainsi qu’un couple d’amis à rester dans cette maison isolée au milieu de la campagne toute une nuit. Ils se lancent dans une petite fête improvisée et vont vite découvrir qu’ils ne sont pas seuls, une bête sauvage assoiffée de sang surgit de l’obscurité pour les attaquer. Les voilà piégés et effrayés. Rien n’est laissé au hasard et chacun commence à douter de l’autre……




Uploader : Phoenix10498
Qualité : DVDRiP
Format : XviD
Langue :
Sous-titre : Aucun
Nom de la Release : UTT

Nombre de fichiers : 1 Fichiers
Taille des fichiers : 700 Mo

Total du post: 700 Mo





Un bon divertissement. Langue Française truefrench. Enjoy Guys.




Générée le :19-12-2012 à 11:50



↓↓↓ Night Wolf 2010 TRUEFRENCH DVDRip XviD-UTT ↓↓↓
 

www.usenet.nl

Seeders 32 Leechers 0 Téléchargements 4002
 
Télécharger Dire merci! Signaler
Voir la liste des membres qui vous remercient
↑↑↑ Night Wolf 2010 TRUEFRENCH DVDRip XviD-UTT ↑↑↑

Informations

Nom Night Wolf 2010 TRUEFRENCH DVDRip XviD-UTT
Torrent Night.Wolf.2010.TRUEFRENCH.DVDRip.XviD-UTT.torrent
Catégorie Film
Taille totale 702.52 MB
Info Hash 2ef2f4d7a984153ae05dfaae522a962d40936b51
Uploadé par Phoenix10498
Uploadé le 2012-12-19 10:55:47 (+00:00)
Visites 4638
évaluation 4.6/5 (71 votes)

Liste des Fichiers

Path Size
Night.Wolf.2010.TRUEFRENCH.DVDRip.XviD-UTT/Night.Wolf.2010.TRUEFRENCH.DVDRip.XviD-UTT.avi 702.51 MB
Night.Wolf.2010.TRUEFRENCH.DVDRip.XviD-UTT/Night.Wolf.2010.TRUEFRENCH.DVDRip.XviD-UTT.nfo 2.75 KB

Voir le NFO

General
Complete name                            : Night.Wolf.2010.TRUEFRENCH.DVDRip.XviD-UTT.avi
Format                                   : AVI
Format/Info                              : Audio Video Interleave
File size                                : 703 MiB
Duration                                 : 1h 21mn
Overall bit rate                         : 1 204 Kbps
Writing application                      : VirtualDubMod 1.5.10.2 Fr | www.trad-fr.com ||  (build 2540/release)
Writing library                          : VirtualDubMod build 2540/release

Video
ID                                       : 0
Format                                   : MPEG-4 Visual
Format profile                           : Advanced Simple@L5
Format settings, BVOP                    : 1
Format settings, QPel                    : No
Format settings, GMC                     : No warppoints
Format settings, Matrix                  : Default (H.263)
Muxing mode                              : Packed bitstream
Codec ID                                 : XVID
Codec ID/Hint                            : XviD
Duration                                 : 1h 21mn
Bit rate                                 : 1 067 Kbps
Width                                    : 624 pixels
Height                                   : 336 pixels
Display aspect ratio                     : 1.85:1
Frame rate                               : 25.000 fps
Color space                              : YUV
Chroma subsampling                       : 4:2:0
Bit depth                                : 8 bits
Scan type                                : Progressive
Compression mode                         : Lossy
Bits/(Pixel*Frame)                       : 0.203
Stream size                              : 622 MiB (89%)
Writing library                          : XviD 1.0.3 (UTC 2004-12-20)

Audio
ID                                       : 1
Format                                   : MPEG Audio
Format version                           : Version 1
Format profile                           : Layer 3
Codec ID                                 : 55
Codec ID/Hint                            : MP3
Duration                                 : 1h 21mn
Bit rate mode                            : Constant
Bit rate                                 : 128 Kbps
Channel(s)                               : 2 channels
Sampling rate                            : 48.0 KHz
Compression mode                         : Lossy
Stream size                              : 74.7 MiB (11%)
Alignment                                : Aligned on interleaves
Interleave, duration                     : 40 ms (1.00 video frame)
Interleave, preload duration             : 504 ms
Writing library                          : LAME3.98r
Encoding settings                        : -m s -V 4 -q 2 -lowpass 17 -b 128


TÉLÉCHARGER "Night Wolf 2010 TRUEFRENCH DVDRip XviD-UTT" 20x PLUS VITE AVEC USENET
Anonyme&Rapide – 14 jours gratuits

Ajouter un commentaire

1 - 20 | 21 - 24
ASAP70 ↑ 158.18 GB ↓ 133.4 GB Ratio: 1,18

Merci pour ce film

smarseille13 ↑ 105.05 GB ↓ 114.81 GB Ratio: 0,91

Pour ma part il est excellent ! Merci

french84 Patrick, Malaga Andalousie ↑ 3.85 TB ↓ 1.72 TB Ratio: 2,23

GRAND MERCI, ma femme adore ce genre

ftatle ↑ 306.24 GB ↓ 136.76 GB Ratio: 2,23

Bonjour,Merci pour le film et bonne année à toutes l'équipe

batmobileloic ↑ 35.5 GB ↓ 4.08 GB Ratio: 8,69

Merci !

Par contre le film manque cruellement de réalisme et d'intérêt. J'ai cru à une blague quand je le regardais. Les acteurs sont absolument pas crédible, ça rend le film ennuyeux (je me suis endormi lors du final, heureux d'enfin voir la fin de ce que je peux appeler un NAVET).

jonathan622 ↑ 32.04 GB ↓ 10.19 GB Ratio: 3,14

merci beaucoup super film

coolfost ↑ 484.58 GB ↓ 618.39 GB Ratio: 0,78

merci j'adore ce genre de film

kizzzler Vos mieux en rire

Merci
Je comprend pas , sur 2050  téléchargé il-y-a  ZÉRO  commentaire et meme pas 400 merci ...

Bref merci l'amis , je vais passé une belle soirée          

itsuu ↑ 3.93 TB ↓ 1.74 TB Ratio: 2,25

Coucou, la qualité "audiovisuel" est bonne mais niveau qualité du film c'est vraiment a chié Oo Un pure navet je comprends même pas comment j'ai pu me forcer a regardé la fin ...

dya3128 ↑ 1.39 TB ↓ 894.84 GB Ratio: 1,58

merci pour le film mais hélas perte de temps...

Jiaojiex ↑ 1.11 TB ↓ 683.1 GB Ratio: 1,65

Merci beaucoup

Je suis qu'un courant d'air........


Minette 01-09-2011

darktrollol77 ↑ 564.35 GB ↓ 333.37 GB Ratio: 1,69

Pure daube, scénario et acteurs mauvais
ne mérite pas le nom de film

musoleil ↑ 1.86 TB ↓ 564.52 GB Ratio: 3,37

Merci beaucoup

letrainsifflera ↑ 1.65 TB ↓ 1.52 TB Ratio: 1,09

merci beaucoup!!

Astrofisik ↑ 96.66 GB ↓ 103.54 GB Ratio: 0,93

mercccci pour tout et gros poutous

                 

caille57 ↑ 1.77 TB ↓ 790.83 GB Ratio: 2,29

merci pour le partage

Sergio1B ↑ 2.67 TB ↓ 1.48 TB Ratio: 1,79

Merci  

espagnolette ↑ 777.06 GB ↓ 803.46 GB Ratio: 0,96

ok. Merci du renseignement. Je pensais que c'était une herreur de sinopsys, des fois, ça arrive. Merci beaucoup alors, pour ce petit frisson de soirée.

NASCI ↑ 423.06 GB ↓ 431.38 GB Ratio: 0,98

merci pour ce film il a l'air pas mal, comment on fait pour resté en seed?

Phoenix10498 Fan des Pinguins. ↑ 241.54 TB ↓ 7.33 TB Ratio: 32,96

il a 2 titre 13 hours et night wolf mais c'est le même film.

je l'ai rajouté dans les infos.

1 - 20 | 21 - 24
Télécharger "Night Wolf 2010 TRUEFRENCH DVDRip XviD-UTT" en illimité a une vitesse de 1000 kbps grïâce aux 14 Jours d'essai gratuit offerts par Usenet.nl!
 
Loading...