Papy fait de la Resistance - 720p.Comédie.French.Xvid.AC3 URL Raccourcie

Télécharger "Papy fait de la Resistance - 720p.Comédie.French.Xvid.AC3" en illimité a une vitesse de 1000 kbps grïâce aux 14 Jours d'essai gratuit offerts par Usenet.nl!

Merci de lire LA PREZ & le NFO avant de télécharger


-----  PAPY FAIT DE LA RESISTANCE  -----

Papy fait de la résistance est un film français réalisé par Jean-Marie Poiré, sorti en 1983. C'est, à l'origine, une pièce de théâtre écrite par Martin Lamotte et Christian Clavier. « Le film qui a coûté plus cher que le Débarquement »








Origine : France
Réalisateur : Jean-Marie Poiré
Scénario: Christian Clavier, Martin Lamotte et Jean-Marie Poiré
Genre : Comédie, Guerre
Acteurs : : Christian Clavier, Michel Galabru, Roland Giraud, Gérard Jugnot, Martin Lamotte, Dominique Lavanant, Jacqueline Maillan, Jacques Villeret
Date de sortie :  1983 (salle) , 2009/2010 (DVD/Blueray)



SYNOPSIS  DU  FILM





Héléna Bourdelle (Jacqueline Maillan), dite « La Bourdelle », est une grande cantatrice et l'épouse du maestro André Bourdelle (Jean Carmet). Engagé dans la Résistance, celui-ci est tué par l'explosion d'une grenade. Suite à la défaite, la famille Bourdelle voit très vite son hôtel particulier investi par les forces allemandes. Se plaignant à la Kommandantur des excès commis, la Bourdelle, ses filles et leur locataire aident par hasard un soldat anglais à s'évader et sont ensuite obligés de le cacher.

La famille, qui doit faire face à leur ancien concierge Ramirez (Gérard Jugnot) devenu agent de la Gestapo, est mieux considérée par le Général Spontz (Roland Giraud) qui se liera avec Bernadette Bourdelle (Dominique Lavanant). Mais il ignore que Guy-Hubert (Martin Lamotte), le fils de la famille, un coiffeur apparemment poltron et efféminé, est en fait l'insaisissable justicier connu sous le nom de « Super-Résistant ». Quant au locataire Michel Taupin (Christian Clavier), amoureux malheureux de Bernadette Bourdelle, et qui au départ avait des vues sur Colette (Pauline Lafont), son insistante volonté de rejoindre la Résistance entraîne bien des péripéties. Emprisonné après l'épisode de la Kommandantur, il rencontre un résistant, Félix/Frémontel (Jacques François), qui se confie à lui, se croyant sur le point d'être fusillé, mais les voilà libérés par Super-Résistant, et Félix qui se voit encombré d'un pot de colle...

Bien qu'elle eut juré de ne pas chanter tant qu'il y aurait un Allemand en France, Héléna Bourdelle se voit contrainte par le général Spontz de participer à la réception donnée en l'honneur du demi-frère de Hitler, le maréchal Ludwig Von Apfelstrudel (Jacques Villeret). Les résistants ont confié à Michel Taupin le soin d'y faire sauter une bombe....





Vers le début des années 1980, un débat télévisé les réunit (mis à part Ramirez qui est remplacé par son fils Ramirez Junior...) et tourne très vite à la catastrophe obligeant l'animateur à faire couper l'antenne.



INFOS  SUR  L'UPLOAD


Hébergeur : SEEDBOX
Qualité : HDrip
Langue :
Format : NTSC, Xvid
Durée : 2h 03m 47s
Bitrate Audio : 192 Kbps
Bitrate Video : 2499 Kbps
Résolution : 1280 x 544


Nom de la Release : Papy fait de la Resistance - 720p.Comédie.French.Xvid.AC3

Nombre de fichiers : 1

Total du post : 2.01 GB









↓↓↓ Papy fait de la Resistance - 720p.Comédie.French.Xvid.AC3 ↓↓↓
 

www.usenet.nl

Seeders 28 Leechers 0 Téléchargements 1387
 
Télécharger Dire merci! Signaler
Voir la liste des membres qui vous remercient
↑↑↑ Papy fait de la Resistance - 720p.Comédie.French.Xvid.AC3 ↑↑↑

Informations

Nom Papy fait de la Resistance - 720p.Comédie.French.Xvid.AC3
Torrent Papy.Fait.De.La.Resistance.avi.torrent
Catégorie Film
Taille totale 2.01 GB
Info Hash eae2ee41cc045dcbbd4d490dd3e0882324f29a97
Uploadé par Anonymous
Uploadé le 2013-03-25 08:14:55 (+00:00)
Visites 2227
évaluation 5/5 (11 votes)

Liste des Fichiers

Path Size
Papy.Fait.De.La.Resistance.avi 2.01 GB

Voir le NFO

General
Complete name                            : F:\MES VIDEOS\Encodés\Papy.Fait.De.La.Resistance.avi
Format                                   : AVI
Format/Info                              : Audio Video Interleave
Format profile                           : OpenDML
File size                                : 2.01 GiB
Duration                                 : 1h 46mn
Overall bit rate                         : 2 702 Kbps
Writing application                      : Lavf54.63.100

Video
ID                                       : 0
Format                                   : MPEG-4 Visual
Format profile                           : Simple@L3
Format settings, BVOP                    : No
Format settings, QPel                    : No
Format settings, GMC                     : No warppoints
Format settings, Matrix                  : Default (H.263)
Codec ID                                 : XVID
Codec ID/Hint                            : XviD
Duration                                 : 1h 46mn
Bit rate                                 : 2 499 Kbps
Width                                    : 1 280 pixels
Height                                   : 544 pixels
Display aspect ratio                     : 2.35:1
Frame rate                               : 24.000 fps
Color space                              : YUV
Chroma subsampling                       : 4:2:0
Bit depth                                : 8 bits
Scan type                                : Progressive
Compression mode                         : Lossy
Bits/(Pixel*Frame)                       : 0.150
Stream size                              : 1.86 GiB (92%)
Writing library                          : XviD 64

Audio
ID                                       : 1
Format                                   : AC-3
Format/Info                              : Audio Coding 3
Mode extension                           : CM (complete main)
Format settings, Endianness              : Big
Codec ID                                 : 2000
Duration                                 : 1h 46mn
Bit rate mode                            : Constant
Bit rate                                 : 192 Kbps
Channel(s)                               : 1 channel
Channel positions                        : Front: C
Sampling rate                            : 48.0 KHz
Bit depth                                : 16 bits
Compression mode                         : Lossy
Stream size                              : 146 MiB (7%)
Alignment                                : Aligned on interleaves
Interleave, duration                     : 32 ms (0.77 video frame)
Title                                    : DTS 1.0

TÉLÉCHARGER "Papy fait de la Resistance - 720p.Comédie.French.Xvid.AC3" 20x PLUS VITE AVEC USENET
Anonyme&Rapide – 14 jours gratuits

Ajouter un commentaire

julesverne10 ↑ 24.82 GB ↓ 34.01 GB Ratio: 0,72

merci beaucoup j'adore

fouintoc ↑ 782.14 GB ↓ 656.1 GB Ratio: 1,19

Merci beaucoup, la qualité est top, j'ai été très agréablement surpris.

Staxjam ↑ 330.6 GB ↓ 67.11 GB Ratio: 4,92

Merci beaucoup...on laisse doucement tomber les tickets de pain..hop hop hop hop!!

lazybum

Quand ce n'est pas indiqué "subforced", il n'y a pas de ST
Pour info -  SUBFORCED ou HARDSUB : Sous-titres incrustés dans la vidéo qui apparaissent lors des passages de langues étrangères.

Sangoku71200 ↑ 1.17 TB ↓ 1.14 TB Ratio: 1,02

Image et son parfait mais pas les sous titre dommage

wiskycoca03 ↑ 972.16 GB ↓ 702.21 GB Ratio: 1,38

merci pour le partage fred 03

edika33 MAC faux rêveur ↑ 2.86 TB ↓ 979.41 GB Ratio: 2,98

Un film cultissime

danceny ↑ 4.52 TB ↓ 3.62 TB Ratio: 1,24

Hénaurme. Merci!

Goasativa ↑ 236.98 GB ↓ 226.12 GB Ratio: 1,04

-Rassurez-vous Madame Bourdelle c'est français, c'est la police française. Alors ausweis, papier,s'il vous plait AU TROT !
-Mais que se passe t-il ? Vraiment je ne comprend......
-C'est pas la peine de prendre vos grands airs. J'ai dit AUSWEIS !!!! tient pendant que vous y êtes rajouté moi les tickets de pain.

thomasustrycki ↑ 87.91 GB ↓ 74.48 GB Ratio: 1,18

merci pour le partage

Télécharger "Papy fait de la Resistance - 720p.Comédie.French.Xvid.AC3" en illimité a une vitesse de 1000 kbps grïâce aux 14 Jours d'essai gratuit offerts par Usenet.nl!
 
Loading...