Paranormal vidéo - Megaconda URL Raccourcie

Télécharger "Paranormal vidéo - Megaconda" en illimité a une vitesse de 1000 kbps grïâce aux 14 Jours d'essai gratuit offerts par Usenet.nl!
Paranormal video

Megaconda




Paranormal Video est une série de documentaires.
Ces documentaires regroupes des vidéos concernant l'existence potentielle de créatures inconnues, telles que des vampires, des loups-garous, monstres marins, bigfoot ...

Ce ne sont pas des preuves directes, ce sont des vidéos permettant de continuer le débat sur l'existence ou non de ces créatures.




Au cours de l'été 2008, 2 défenseurs de la nature font intrusion dans l'entrepôt dont ils soupçonnent le propriétaire de faire du trafic d'animaux exotiques.


Qualité : TvRIP

Format : M4V

Langue : Francais

Sous-titre : Aucun

Nombre de fichiers : 1 Fichier


---------------

http://www.t411.me/torrents/paranormal-vido-l-alien
http://www.t411.me/torrents/paranormal-vido-le-chupacabra
http://www.t411.me/torrents/paranormal-vido-la-pieuvre-de-l-oklahoma
http://www.t411.me/torrents/paranormal-vido-megaconda
http://www.t411.me/torrents/paranormal-vido-le-monstre-de-white-river
http://www.t411.me/torrents/paranormal-vido-le-monstre-de-monterey
http://www.t411.me/torrents/paranormal-vido-le-vampire
http://www.t411.me/torrents/paranormal-vido-le-marcheur-de-peau
http://www.t411.me/torrents/paranormal-vido-le-diable-du-new-jersey
http://www.t411.me/torrents/pranormal-vido-l-oiseau-tonnerre
http://www.t411.me/torrents/paranormal-vido-le-dmon-de-dover
http://www.t411.me/torrents/paranormal-vido-l-homme-papillon
http://www.t411.me/torrents/paranormal-vido-le-ver-tueur
http://www.t411.me/torrents/paranormal-vido-le-montre-de-fouke
http://www.t411.me/torrents/paranormal-vido-le-loup-garou
http://www.t411.me/torrents/paranormal-vido-myriapode-mortel
http://www.t411.me/torrents/paranormal-vido-le-chien-fantme
http://www.t411.me/torrents/paranormal-video-l-homme-lezard



↓↓↓ Paranormal vidéo - Megaconda ↓↓↓
 

www.usenet.nl

Seeders 8 Leechers 0 Téléchargements 479
 
Télécharger Dire merci! Signaler
Voir la liste des membres qui vous remercient
↑↑↑ Paranormal vidéo - Megaconda ↑↑↑

Informations

Nom Paranormal vidéo - Megaconda
Torrent Megaconda.m4v.torrent
Catégorie Documentaire
Taille totale 635.99 MB
Info Hash 35a71118655a68955bd6e25bc845b08f12ee78e9
Uploadé par Askinium
Uploadé le 2014-03-10 18:55:22 (+00:00)
Visites 638
évaluation 4/5 (18 votes)

Liste des Fichiers

Path Size
Megaconda.m4v 635.99 MB

Voir le NFO

General
Complete name                    : Megaconda.m4v
Format                           : MPEG-4
Format profile                   : Apple TV
Codec ID                         : M4VH
File size                        : 636 MiB
Duration                         : 23mn 13s
Overall bit rate                 : 3 828 Kbps
Encoded date                     : UTC 2014-03-08 21:27:26
Tagged date                      : UTC 2014-03-08 21:27:49

Video
ID                               : 1
Format                           : AVC
Format/Info                      : Advanced Video Codec
Format profile                   : Main@L3.1
Format settings, CABAC           : No
Format settings, ReFrames        : 2 frames
Codec ID                         : avc1
Codec ID/Info                    : Advanced Video Coding
Duration                         : 23mn 13s
Bit rate mode                    : Variable
Bit rate                         : 3 702 Kbps
Width                            : 960 pixels
Height                           : 540 pixels
Display aspect ratio             : 16:9
Frame rate mode                  : Constant
Frame rate                       : 29.970 fps
Resolution                       : 24 bits
Colorimetry                      : 4:2:0
Scan type                        : Progressive
Bits/(Pixel*Frame)               : 0.238
Stream size                      : 615 MiB (97%)
Title                            : Module de gestion vid
Language                         : French
Encoded date                     : UTC 2014-03-08 18:28:23
Tagged date                      : UTC 2014-03-08 21:27:49
colour_primaries                 : BT.709-5, BT.1361, IEC 61966-2-4, SMPTE RP177
transfer_characteristics         : BT.709-5, BT.1361
matrix_coefficients              : BT.709-5, BT.1361, IEC 61966-2-4 709, SMPTE RP177

Audio
ID                               : 2
Format                           : AAC
Format/Info                      : Advanced Audio Codec
Format version                   : Version 4
Format profile                   : LC
Format settings, SBR             : No
Codec ID                         : 40
Duration                         : 23mn 13s
Bit rate mode                    : Constant
Bit rate                         : 120 Kbps
Nominal bit rate                 : 128 Kbps
Channel(s)                       : 2 channels
Channel positions                : L R
Sampling rate                    : 44.1 KHz
Resolution                       : 16 bits
Stream size                      : 20.0 MiB (3%)
Title                            : Module de gestion sonore
Language                         : French
Encoded date                     : UTC 2014-03-08 18:28:25
Tagged date                      : UTC 2014-03-08 21:27:49

TÉLÉCHARGER "Paranormal vidéo - Megaconda" 20x PLUS VITE AVEC USENET
Anonyme&Rapide – 14 jours gratuits

Ajouter un commentaire

matt68fr ↑ 20.15 TB ↓ 4.64 TB Ratio: 4,34

Il est intéressant de noter qu'une légende peut devenir réalité :

L'hypnose, l'auto hypnose ou même l'endoctrinement peut créer des vampires, loup garou, zombie, ...

À méditer

Au XXIe siècle on a découvert les prémices de l'infini. (dans la bêtise sans limite de l'être humain)
Le retour du messie est annoncé. (mais toujours pas de volontaires)

matgan27 ↑ 9.3 TB ↓ 3.01 TB Ratio: 3,09

continue comme ca, j'adore cette série, merci de nous la proposer en partage, et bien sure je reste en seed

mieux vaut fermer sa gueule et passer pour un con, que l'ouvrir et annuler tout soupçons

Télécharger "Paranormal vidéo - Megaconda" en illimité a une vitesse de 1000 kbps grïâce aux 14 Jours d'essai gratuit offerts par Usenet.nl!
 
Loading...