Pas.De.Repit.Pour.Melanie.QC.FRENCH.DVDRiP.XViD-KFT URL Raccourcie

Télécharger "Pas.De.Repit.Pour.Melanie.QC.FRENCH.DVDRiP.XViD-KFT" en illimité a une vitesse de 1000 kbps grïâce aux 14 Jours d'essai gratuit offerts par Usenet.nl!



Pas de répit pour Mélanie

Durée: 1h35

Genre: Fiction, Famille, Comédies

Origine: Canada

Date de sortie au Québec: 1990

Synopsis:

Pendant les vacances scolaires, Mélanie, une jeune fille de la campagne, reçoit la visite de sa correspondante de longue date, une citadine prénommée Florence. L'été s'annonce beau et paisible jusqu'à ce que, inspirées par le Petit Prince de Saint-Exupéry, elles décident "d'apprivoiser" une dame âgée et solitaire que tous les enfants du village craignent. Lorsque la mystérieuse aïeule se fait voler ses bijoux et son cochonnet, ses biens les plus précieux, les deux amies se transforment en détectives privées. Tout à coup, les événements prennent un autre cours et l'été si calme est ponctué d'aventures palpitantes. A la recherche du butin volé, Mélanie et Florence découvriront surtout la triste réalité des personnes âgées.



Réalisation: Jean Beaudry

Scénario: Jean Beaudry, Stella Goulet

Images: Éric Cayla

Producteur: Rock Demers



Interprétation:

Ginette Boivin : L'infirmière
Vincent Bolduc : Martin-Pierre
Jocelyn Bérubé : Le chef de police
Clément Cazelais : Le père de Mélanie
Camille Cyr-Desmarais : Sarah
Paul Dion : Le père de Louis
Marie-Stéphane Gaudry : Mélanie
Carmen Jolin : La réceptionniste à l'hospice
Madeleine Langlois : Madame Labbé
Pierre Legris : L'inspecteur en isolation
Claude Lemieux : L'infirmier
Kesnamelly Neff : Florence
Alexandre Neszvecsko : Louis
Ellery Picard : Alexis
Claire Pimparé : Médecin
Capucine Power : Julie
Ghyslain Tremblay : Gougoutte
Johanne-Marie Tremblay : La mère de Mélanie
Bruno Viens : Le voleur

CONTENU DU TORRENT: Pas.De.Repit.Pour.Melanie.QC.FRENCH.DVDRiP.XViD-KFT.avi



↓↓↓ Pas.De.Repit.Pour.Melanie.QC.FRENCH.DVDRiP.XViD-KFT ↓↓↓
 

www.usenet.nl

Seeders 8 Leechers 0 Téléchargements 339
 
Télécharger Dire merci! Signaler
Voir la liste des membres qui vous remercient
↑↑↑ Pas.De.Repit.Pour.Melanie.QC.FRENCH.DVDRiP.XViD-KFT ↑↑↑

Informations

Nom Pas.De.Repit.Pour.Melanie.QC.FRENCH.DVDRiP.XViD-KFT
Torrent Pas.De.Repit.Pour.Melanie.QC.FRENCH.DVDRiP.XViD-KFT.avi.torrent
Catégorie Film
Taille totale 691.05 MB
Info Hash e0ca4d0c9881c9d67bff0e8daf681c842ce08a3f
Uploadé par vandals
Uploadé le 2011-12-26 21:39:58 (+00:00)
Visites 505
évaluation 5/5 (5 votes)

Liste des Fichiers

Path Size
Pas.De.Repit.Pour.Melanie.QC.FRENCH.DVDRiP.XViD-KFT.avi 691.05 MB

Voir le NFO

General
Complete name                    : Pas.De.Repit.Pour.Melanie.QC.FRENCH.DVDRiP.XViD-KFT.avi
Format                           : AVI
Format/Info                      : Audio Video Interleave
File size                        : 691 MiB
Duration                         : 1h 34mn
Overall bit rate                 : 1 017 Kbps

Video
ID                               : 0
Format                           : MPEG-4 Visual
Format profile                   : Advanced Simple@L4
Format settings, BVOP            : No
Format settings, QPel            : No
Format settings, GMC             : No warppoints
Format settings, Matrix          : Default (H.263)
Codec ID                         : XVID
Codec ID/Hint                    : XviD
Duration                         : 1h 34mn
Bit rate                         : 876 Kbps
Width                            : 640 pixels
Height                           : 480 pixels
Display aspect ratio             : 4:3
Frame rate                       : 29.970 fps
Color space                      : YUV
Chroma subsampling               : 4:2:0
Bit depth                        : 8 bits
Scan type                        : Progressive
Compression mode                 : Lossy
Bits/(Pixel*Frame)               : 0.095
Stream size                      : 595 MiB (86%)
Writing library                  : Magic0432

Audio
ID                               : 1
Format                           : MPEG Audio
Format version                   : Version 1
Format profile                   : Layer 3
Mode                             : Joint stereo
Mode extension                   : MS Stereo
Codec ID                         : 55
Codec ID/Hint                    : MP3
Duration                         : 1h 34mn
Bit rate mode                    : Constant
Bit rate                         : 128 Kbps
Channel(s)                       : 2 channels
Sampling rate                    : 44.1 KHz
Compression mode                 : Lossy
Stream size                      : 87.0 MiB (13%)
Alignment                        : Aligned on interleaves
Interleave, duration             : 26 ms (0.78 video frame)

TÉLÉCHARGER "Pas.De.Repit.Pour.Melanie.QC.FRENCH.DVDRiP.XViD-KFT" 20x PLUS VITE AVEC USENET
Anonyme&Rapide – 14 jours gratuits

Ajouter un commentaire

vandals ↑ 5.59 TB ↓ 2.59 TB Ratio: 2,15

je devrai faire un repost mais quand jaurai le temps...rappelle le moi si joublie

Ape shall never kill ape.

missmayrand ↑ 7.93 GB ↓ 12.8 GB Ratio: 0,61

je suis en ligne depuis quelque jours et sa ne marche pas (((

vandals ↑ 5.59 TB ↓ 2.59 TB Ratio: 2,15

je vais faire un repost si ca fonctionne pas

Ape shall never kill ape.

missmayrand ↑ 7.93 GB ↓ 12.8 GB Ratio: 0,61

merci mais je suis en ligne depuis 2 jour et pas capable davoir de seeder pour je le telecharge (

vandals ↑ 5.59 TB ↓ 2.59 TB Ratio: 2,15

si qqun veut du seed juste à m'écrire!

Ape shall never kill ape.

bobpasto ↑ 324.59 GB ↓ 414.35 GB Ratio: 0,78

des vieux classic MERCI !!!!

belisama07 ↑ 1.66 TB ↓ 691.79 GB Ratio: 2,45

Merci pour les enfants !

Télécharger "Pas.De.Repit.Pour.Melanie.QC.FRENCH.DVDRiP.XViD-KFT" en illimité a une vitesse de 1000 kbps grïâce aux 14 Jours d'essai gratuit offerts par Usenet.nl!

 
Loading...