Plus Belle La Vie S09 Ep 2338-Webrip URL Raccourcie

Télécharger "Plus Belle La Vie S09 Ep 2338-Webrip" en illimité a une vitesse de 1000 kbps grïâce aux 14 Jours d'essai gratuit offerts par Usenet.nl!





Origine de la serie : Française
Titre original : Plus belle la vie
Statut : Production en cour saison 09
Réalisateur : Christophe Reichert - Christophe Andrei - Emmanuelle Dubergey - Philippe Carrese - Christian Guérinel - Bénédicte Delmas - Claire de La Rochefoucauld - Gille Cayatte - Philippe Dajoux - Christian François - Jean Pierre Igoux - Christophe Salakas - Jérôme Navarro.
Acteurs actuellement présent : Fabienne Carat-Jean-François Malet-Élodie Varlet-Stéphane Henon-Ludovic Baude-Pascale Roberts-Léa François-Marwan Berreni-David Baiot-Nadège Beausson-Diagne-Avy Marciano-Grégory Questel-Joakim Latzko-Geoffrey Piet-Marie Réache-Louis Duneton-Zara Prassinot
Genre : Drame
Durée : 25 Min(s)
Date de diffusion : 09/10/2013




Tandis que Victoire est prête à se battre par amour, un ange veille sur l'amitié de Djawad et Boris. De son côté, Blanche commence son enquête.



Hébergeur : Torrent
Qualité : Webrip
Format : Mpeg-4
Langue : Francais
Sous-titre : Aucun
Taille totale : 191 Mo




Amusez vous bien, et surtout un petit merci ou un petit commentaire, un vote "bon" fait toujours plaisir à l'uploadeur !





↓↓↓ Plus Belle La Vie S09 Ep 2338-Webrip ↓↓↓
 

www.usenet.nl

Seeders 3 Leechers 0 Téléchargements 1018
 
Télécharger Dire merci! Signaler
Voir la liste des membres qui vous remercient
↑↑↑ Plus Belle La Vie S09 Ep 2338-Webrip ↑↑↑

Informations

Nom Plus Belle La Vie S09 Ep 2338-Webrip
Torrent Plus Belle La Vie S09 Ep 2338-Webrip.torrent
Catégorie Série TV
Taille totale 191.46 MB
Info Hash a72b71bae1b2ebd0f38542c214480cc31a177dd9
Uploadé par chouchousims3
Uploadé le 2013-10-02 14:56:59 (+00:00)
Visites 1248
évaluation 4.7/5 (23 votes)

Liste des Fichiers

Path Size
Plus Belle La Vie S09 Ep 2338-Webrip/Plus Belle La Vie S09 Ep 2338-Webrip.avi 191.46 MB
Plus Belle La Vie S09 Ep 2338-Webrip/Plus Belle La Vie S09 Ep 2338-Webrip.nfo 3.04 KB

Voir le NFO

*******************************************************************************
                     Plus Belle La Vie S09 Ep 2338-Webrip
*******************************************************************************

-------------------------------------------------------------------------------
                              General Information
-------------------------------------------------------------------------------

General
Complete name                            : E:\Downloads utorrent\Plus Belle La Vie S09 Ep 2338-Webrip\Plus Belle La Vie S09 Ep 2338-Webrip.avi
Format                                   : AVI
Format/Info                              : Audio Video Interleave
File size                                : 191 MiB
Duration                                 : 24mn 2s
Overall bit rate                         : 1 113 Kbps
Writing application                      : Lavf52.57.1

Video
ID                                       : 0
Format                                   : MPEG-4 Visual
Codec ID                                 : FMP4
Duration                                 : 24mn 2s
Bit rate                                 : 972 Kbps
Width                                    : 704 pixels
Height                                   : 392 pixels
Display aspect ratio                     : 16:9
Frame rate                               : 25.000 fps
Color space                              : YUV
Chroma subsampling                       : 4:2:0
Compression mode                         : Lossy
Bits/(Pixel*Frame)                       : 0.141
Stream size                              : 167 MiB (87%)

Audio
ID                                       : 1
Format                                   : MPEG Audio
Format version                           : Version 1
Format profile                           : Layer 3
Mode                                     : Joint stereo
Mode extension                           : MS Stereo
Codec ID                                 : 55
Codec ID/Hint                            : MP3
Duration                                 : 24mn 2s
Bit rate mode                            : Constant
Bit rate                                 : 128 Kbps
Channel(s)                               : 2 channels
Sampling rate                            : 48.0 KHz
Compression mode                         : Lossy
Stream size                              : 22.0 MiB (11%)
Alignment                                : Aligned on interleaves
Interleave, duration                     : 24 ms (0.60 video frame)



-------------------------------------------------------------------------------
                               Post Information
-------------------------------------------------------------------------------
Posted by............: chouchousims3
Posted on............: 02/10/2013



-------------------------------------------------------------------------------
Generated with Cool NFO Creator - http://fly.to/coolbeans
-------------------------------------------------------------------------------

TÉLÉCHARGER "Plus Belle La Vie S09 Ep 2338-Webrip" 20x PLUS VITE AVEC USENET
Anonyme&Rapide – 14 jours gratuits

Ajouter un commentaire

chouchousims3 ↑ 709.42 GB ↓ 203.61 GB Ratio: 3,48

La suite ici, et cette fois bien complet, j'ai vérifié ! ==> PBLV 2339

Bon episode !



Vous cherchez un épisode de série TV précis ?
Contactez moi par mp pour votre demande

lolamona ↑ 289.12 GB ↓ 304.87 GB Ratio: 0,94

merci

papou93 ↑ 1.49 TB ↓ 1.49 TB Ratio: 0,99

oui il est la maintenant 1er a voté ps les téléchargement c'est bien les finis si c'est ça y a pas beaucoup de vote

Dernière édition par papou93 le 2013-10-02 16:36:09

papou93 ↑ 1.49 TB ↓ 1.49 TB Ratio: 0,99

papou93 ↑ 1.49 TB ↓ 1.49 TB Ratio: 0,99

merci pourquoi on trouve pas dans recherche

Télécharger "Plus Belle La Vie S09 Ep 2338-Webrip" en illimité a une vitesse de 1000 kbps grïâce aux 14 Jours d'essai gratuit offerts par Usenet.nl!
 
Loading...