Real.Steel.2011.FRENCH.DVDRiP.XviD-PoX URL Raccourcie

Télécharger "Real.Steel.2011.FRENCH.DVDRiP.XviD-PoX" en illimité a une vitesse de 1000 kbps grïâce aux 14 Jours d'essai gratuit offerts par Usenet.nl!

(¯`·._.·[  Real Steel  ]·._.·´¯)







Origine du film : Indien, américain
Distributeur : The Walt Disney Company France
Réalisateur : Shawn Levy
Acteurs : Hugh Jackman, Dakota Goyo, Evangeline Lilly
Genre : Science fiction
Durée : 2h 07 min
Date de sortie : 19 octobre 2011
Année de production : 2011
Critiques spectateurs :  3,9  
Critiques presse :  2,8  

Bande annonce : Voir la bande-annonce



Dans un futur proche, la boxe a évolué pour devenir un sport high-tech. Charlie Kenton, un ancien boxeur, a perdu toute chance de remporter le championnat depuis que les humains ont été remplacés sur le ring par des robots d'acier de 900 kilos et de 2,40 m de haut. A présent, il n'est plus qu'un manager minable qui utilise des robots bas de gamme fabriqués à partir de pièces de récupération. Il gagne juste assez pour survivre d'un combat à l'autre. Lorsque Charlie touche le fond, il accepte à contrecœur de faire équipe avec son fils Max, qu'il a perdu de vue depuis des années, pour construire et entraîner un champion. Dans l'arène où tous les coups sont permis, les enjeux sont plus élevés qu'ils ne l'ont jamais été. Contre toute attente, Charlie et Max ont une chance, une seule, de faire leur grand retour...





Hébergeur : Torrent
Qualité : DVDRiP
Format : XviD
Langue : Français
Sous-titre : Aucun
Découper avec : Aucun


Nombre et taille des fichiers : 1 X 750 Mo


Total du post : 750 Mo




POX.




Générée le :03-02-2012 à 09:11



↓↓↓ Real.Steel.2011.FRENCH.DVDRiP.XviD-PoX ↓↓↓
 

www.usenet.nl

Seeders 276 Leechers 0 Téléchargements 107122
 
Télécharger Dire merci! Signaler
Voir la liste des membres qui vous remercient
↑↑↑ Real.Steel.2011.FRENCH.DVDRiP.XviD-PoX ↑↑↑

Informations

Nom Real.Steel.2011.FRENCH.DVDRiP.XviD-PoX
Torrent Real.Steel.2011.FRENCH.DVDRiP.XviD-PoX.avi.torrent
Catégorie Film
Taille totale 718.51 MB
Info Hash 6f810a0cc6f600f341626020ceee0f28489aada9
Uploadé par Drunkfish
Uploadé le 2012-01-26 11:33:25 (+00:00)
Visites 112127
évaluation 4.8/5 (614 votes)

Liste des Fichiers

Path Size
Real.Steel.2011.FRENCH.DVDRiP.XviD-PoX.avi 718.51 MB

Voir le NFO

{\rtf1\ansi\ansicpg1252\cocoartf1038\cocoasubrtf360
{\fonttbl\f0\fnil\fcharset0 Geneva;}
{\colortbl;\red255\green255\blue255;}
\paperw11900\paperh16840\margl1440\margr1440\vieww9000\viewh8400\viewkind0
\pard\tx560\tx1120\tx1680\tx2240\tx2800\tx3360\tx3920\tx4480\tx5040\tx5600\tx6160\tx6720\ql\qnatural\pardirnatural

\f0\fs20 \cf0 General\
Complete name                            : /Users/PoX 1/Documents/Vuze Downloads/Real.Steel.2011.FRENCH.DVDRiP.XviD-PoX.avi\
Format                                   : AVI\
Format/Info                              : Audio Video Interleave\
File size                                : 719 MiB\
Duration                                 : 2h 6mn\
Overall bit rate                         : 792 Kbps\
Writing application                      : VirtualDubMod 1.5.10.2 Fr | www.trad-fr.com ||  (build 2540/release)\
Writing library                          : VirtualDub Fr build 30091/release\
\
Video\
ID                                       : 0\
Format                                   : MPEG-4 Visual\
Format profile                           : Advanced Simple@L5\
Format settings, BVOP                    : 2\
Format settings, QPel                    : No\
Format settings, GMC                     : No warppoints\
Format settings, Matrix                  : Default (H.263)\
Muxing mode                              : Packed bitstream\
Codec ID                                 : XVID\
Codec ID/Hint                            : XviD\
Duration                                 : 2h 6mn\
Bit rate                                 : 655 Kbps\
Width                                    : 720 pixels\
Height                                   : 304 pixels\
Display aspect ratio                     : 2.35:1\
Frame rate                               : 23.976 fps\
Color space                              : YUV\
Chroma subsampling                       : 4:2:0\
Bit depth                                : 8 bits\
Scan type                                : Progressive\
Compression mode                         : Lossy\
Bits/(Pixel*Frame)                       : 0.125\
Stream size                              : 594 MiB (83%)\
Writing library                          : XviD 64\
\
Audio\
ID                                       : 1\
Format                                   : MPEG Audio\
Format version                           : Version 1\
Format profile                           : Layer 3\
Codec ID                                 : 55\
Codec ID/Hint                            : MP3\
Duration                                 : 2h 6mn\
Bit rate mode                            : Constant\
Bit rate                                 : 128 Kbps\
Channel(s)                               : 2 channels\
Sampling rate                            : 48.0 KHz\
Compression mode                         : Lossy\
Stream size                              : 116 MiB (16%)\
Alignment                                : Aligned on interleaves\
Interleave, duration                     : 42 ms (1.00 video frame)\
Interleave, preload duration             : 504 ms\
Writing library                          : LAME3.98r\
Encoding settings                        : -m s -V 4 -q 2 -lowpass 17 -b 128\
\
}

Ajouter un commentaire

1 - 20 | 21 - 40 | 41 - 60 | ... | 361 - 380 | 381 - 400 | 401 - 407
rayanou ↑ 487.5 GB ↓ 170.39 GB Ratio: 2,86

il est trop cool merci encore salut

mamour60 ↑ 115.67 GB ↓ 109.73 GB Ratio: 1,05

merci beaucoup

cdedette ↑ 663.55 GB ↓ 491.47 GB Ratio: 1,35

merci beaucoup

emiliano1024 ↑ 32.94 GB ↓ 44.07 GB Ratio: 0,74

desole Petit beug

emiliano1024 ↑ 32.94 GB ↓ 44.07 GB Ratio: 0,74

merci beaucoup il est super le filme

emiliano1024 ↑ 32.94 GB ↓ 44.07 GB Ratio: 0,74

merci beaucoup il est super le filme

emiliano1024 ↑ 32.94 GB ↓ 44.07 GB Ratio: 0,74

merci beaucoup il est super le filme

emiliano1024 ↑ 32.94 GB ↓ 44.07 GB Ratio: 0,74

merci beaucoup il est super le filme

emiliano1024 ↑ 32.94 GB ↓ 44.07 GB Ratio: 0,74

merci beaucoup il est super le filme

patschum ↑ 295.9 GB ↓ 196.62 GB Ratio: 1,50

ok merci mais la traduction française de l'acteur est pas la même, image un peu floue

metalhead666 ↑ 1.34 TB ↓ 463.96 GB Ratio: 2,96

merci beaucoup

cammax41 ↑ 32.38 GB ↓ 36.23 GB Ratio: 0,89

merci pour ce super beau film

lafeenanou ↑ 1.04 TB ↓ 1.01 TB Ratio: 1,02

firestart32 ↑ 105.95 GB ↓ 140.94 GB Ratio: 0,75

Merci Bon film avec Hugh Jackman

selevakarsun ↑ 89.54 GB ↓ 70.66 GB Ratio: 1,26

mes enfants ont adorés le revoir, merci bcq pour eux et moi aussi j'adore !!!

joedufs ↑ 631.97 GB ↓ 603.69 GB Ratio: 1,04

juste le must... thanks pour le post

cartercf ↑ 187.45 GB ↓ 142.85 GB Ratio: 1,31

merci à toi pour ce film

ketch777 ↑ 194.82 GB ↓ 117.04 GB Ratio: 1,66

trop bien merci

Vicente18 ↑ 362.35 GB ↓ 110.47 GB Ratio: 3,28

Super, et encore ...merci.

quaress72600 ↑ 31.4 GB ↓ 6.22 GB Ratio: 5,04

merciii j'adore ce film !

1 - 20 | 21 - 40 | 41 - 60 | ... | 361 - 380 | 381 - 400 | 401 - 407
Télécharger "Real.Steel.2011.FRENCH.DVDRiP.XviD-PoX" en illimité a une vitesse de 1000 kbps grïâce aux 14 Jours d'essai gratuit offerts par Usenet.nl!
 
Loading...