Rex chien flic saison 1 DVD1 URL Raccourcie

Télécharger "Rex chien flic saison 1 DVD1" en illimité a une vitesse de 1000 kbps grïâce aux 14 Jours d'essai gratuit offerts par Usenet.nl!
(¯`·._.·[ Rex, chien flic ]·._.·´¯







Titre original :Kommissar Rex
Origine de la serie : Autrichienne
Statut : En production
Réalisateur : Aucune Information ...
Acteurs : Domenico Fortunato, Sergio Zecca, Chiara Gensini
Genre : Policier
Note : 1.5

Bande annonce : Voir la bande-annonce



Un inspecteur de police et son fidèle berger allemand, Rex, font respecter l'ordre à Vienne...



Hébergeur : Seedbox
Qualité : DVD
Format : MDX
Langue :
Sous-titre : Aucun
Découper avec : Aucun

Format MDX équivalent ISO

Episodes:
1. L'attentat
2.Diagnostic Mortel
3.Etrange voyage






↓↓↓ Rex chien flic saison 1 DVD1 ↓↓↓
 

www.usenet.nl

Seeders 0 Leechers 0 Téléchargements 27
 
Télécharger Dire merci! Signaler
Voir la liste des membres qui vous remercient
↑↑↑ Rex chien flic saison 1 DVD1 ↑↑↑

Informations

Nom Rex chien flic saison 1 DVD1
Torrent REX_CHIEN_FLIC_S1_DVD_1.mdx.torrent
Catégorie Série TV
Taille totale 7.3 GB
Info Hash d0658a6d2e7084e272d96987f8ba718081abe797
Uploadé par agata080
Uploadé le 2013-10-23 08:26:43 (+00:00)
Visites 179
évaluation 4/5 (5 votes)

Liste des Fichiers

Path Size
REX_CHIEN_FLIC_S1_DVD_1.mdx 7.3 GB

Voir le NFO

 ■General

Complete name                            : E:\VIDEO_TS\VTS_02_2.VOB

Format                                   : MPEG-PS

File size                                : 1 024 MiB

Duration                                 : 24mn 53s

Overall bit rate mode                    : Variable

Overall bit rate                         : 5 750 Kbps



Video

ID                                       : 224 (0xE0)

Format                                   : MPEG Video

Format version                           : Version 2

Format profile                           : Main@Main

Format settings, BVOP                    : Yes

Format settings, Matrix                  : Custom

Format settings, GOP                     : Variable

Duration                                 : 24mn 53s

Bit rate mode                            : Variable

Bit rate                                 : 5 444 Kbps

Maximum bit rate                         : 8 500 Kbps

Width                                    : 720 pixels

Height                                   : 576 pixels

Display aspect ratio                     : 4:3

Frame rate                               : 25.000 fps

Standard                                 : PAL

Color space                              : YUV

Chroma subsampling                       : 4:2:0

Bit depth                                : 8 bits

Scan type                                : Interlaced

Scan order                               : Top Field First

Compression mode                         : Lossy

Bits/(Pixel*Frame)                       : 0.525

Time code of first frame                 : 10:24:58:09

Time code source                         : Group of pictures header

Stream size                              : 969 MiB (95%)



Audio

ID                                       : 189 (0xBD)-128 (0x80)

Format                                   : AC-3

Format/Info                              : Audio Coding 3

Mode extension                           : CM (complete main)

Format settings, Endianness              : Big

Muxing mode                              : DVD-Video

Duration                                 : 24mn 53s

Bit rate mode                            : Constant

Bit rate                                 : 192 Kbps

Channel(s)                               : 2 channels

Channel positions                        : Front: L R

Sampling rate                            : 48.0 KHz

Bit depth                                : 16 bits

Compression mode                         : Lossy

Delay relative to video                  : -560ms

Stream size                              : 34.2 MiB (3%)



Menu



TÉLÉCHARGER "Rex chien flic saison 1 DVD1" 20x PLUS VITE AVEC USENET
Anonyme&Rapide – 14 jours gratuits

Ajouter un commentaire

loveuze ↑ 30.15 GB ↓ 17.7 GB Ratio: 1,70

J'adore cette série merci beaucoup ^^

safrane30 ↑ 2.12 TB ↓ 2.36 TB Ratio: 0,89

merci beaucoup trop sympa

Télécharger "Rex chien flic saison 1 DVD1" en illimité a une vitesse de 1000 kbps grïâce aux 14 Jours d'essai gratuit offerts par Usenet.nl!
 
Loading...