Shameless.US.S03E01.FASTSUB.VOSTFR.HDTV.XviD-MiND URL Raccourcie

Télécharger "Shameless.US.S03E01.FASTSUB.VOSTFR.HDTV.XviD-MiND" en illimité a une vitesse de 1000 kbps grïâce aux 14 Jours d'essai gratuit offerts par Usenet.nl!



( ¯ `·._.·[ Shameless (US) ]·._.·´ ¯ )







Titre original : Shameless (US)
Origine de la serie : anglaise du même nom : Shameless
Statut : Série en production- 3 saisons, 19 épisodes
Réalisateur : Aucune Information ...
Acteurs : William H. Macy, Emmy Rossum, Justin Chatwin  
Genre : Comédie
Date de diffusion : en France le 15 septembre 2011

Bande annonce :





Adaptation par Showtime de la série anglaise éponyme, Shameless commence en janvier 2011. L'histoire est la même que la série originale : la vie d'une famille dont le père est chômeur, ivrogne et amateur d'exta de son actuelle compagne et de ses 6 enfants.




Hébergeur :
Qualité : TVrip
Format : avi
Langue : Anglais
Sous-titre : Français
Nom de la Release : Shameless.US.S03E01.FASTSUB.VOSTFR.HDTV.XviD-MiND


Total du post : 550 Mo




Un merci fait toujours plaisir !








↓↓↓ Shameless.US.S03E01.FASTSUB.VOSTFR.HDTV.XviD-MiND ↓↓↓
 

www.usenet.nl

Seeders 24 Leechers 0 Téléchargements 5396
 
Télécharger Dire merci! Signaler
Voir la liste des membres qui vous remercient
↑↑↑ Shameless.US.S03E01.FASTSUB.VOSTFR.HDTV.XviD-MiND ↑↑↑

Informations

Nom Shameless.US.S03E01.FASTSUB.VOSTFR.HDTV.XviD-MiND
Torrent Shameless.US.S03E01.FASTSUB.VOSTFR.HDTV.XviD-MiND.torrent
Catégorie Série TV
Taille totale 548.67 MB
Info Hash 00183ad5e9ea2de3fc8c270b202f3fae039d71e0
Uploadé par g2loq666dtc
Uploadé le 2013-01-15 08:24:00 (+00:00)
Visites 6409
évaluation 4.9/5 (39 votes)

Liste des Fichiers

Path Size
Shameless.US.S03E01.FASTSUB.VOSTFR.HDTV.XviD-MiND/Shameless.US.S03E01.FASTSUB.VOSTFR.HDTV.XviD-MiND.avi 548.67 MB
Shameless.US.S03E01.FASTSUB.VOSTFR.HDTV.XviD-MiND/Shameless.US.S03E01.FASTSUB.VOSTFR.HDTV.XviD-MiND.nfo 4.04 KB

Voir le NFO

 .__________________________________.
 | ________________________________ |
 | I                              I |
 | I                     _()/^)   I |
 | I                      _)\<    I |
 | I (^\()_                 \\)_  I |
 | I  >/(_     upload by     \  ` I |
 | I (/\\      g2loq666dtc   `    I |
 | I   /|                         I |
 | I   ``                         I |
 | I______________________________I |
 !__________________________________!
            ._[_______]_.
        .___|___________|___.

General
Complete name                            : Shameless.US.S03E01.FASTSUB.VOSTFR.HDTV.XviD-MiND/Shameless.US.S03E01.FASTSUB.VOSTFR.HDTV.XviD-MiND.avi
Format                                   : AVI
Format/Info                              : Audio Video Interleave
File size                                : 549 MiB
Duration                                 : 59mn 40s
Overall bit rate                         : 1 285 Kbps
Movie name                               : Shameless.US.S03E01.FASTSUB.VOSTFR.HDTV.XviD-MiND.avi
Genre                                    : VOSTFR by MiND
Writing application                      : MEncoder git-ab94fc6-4.4.3
Writing library                          : MPlayer
Copyright                                : MiND Project
Comment                                  : MiND Project

Video
ID                                       : 0
Format                                   : MPEG-4 Visual
Format profile                           : Advanced Simple@L5
Format settings, BVOP                    : 2
Format settings, QPel                    : No
Format settings, GMC                     : No warppoints
Format settings, Matrix                  : Default (H.263)
Codec ID                                 : XVID
Codec ID/Hint                            : XviD
Duration                                 : 59mn 40s
Bit rate                                 : 1 152 Kbps
Width                                    : 624 pixels
Height                                   : 352 pixels
Display aspect ratio                     : 16:9
Frame rate                               : 23.976 fps
Color space                              : YUV
Chroma subsampling                       : 4:2:0
Bit depth                                : 8 bits
Scan type                                : Progressive
Compression mode                         : Lossy
Bits/(Pixel*Frame)                       : 0.219
Stream size                              : 492 MiB (90%)
Writing library                          : XviD 1.2.1 (UTC 2008-12-04)

Audio
ID                                       : 1
Format                                   : MPEG Audio
Format version                           : Version 1
Format profile                           : Layer 3
Mode                                     : Joint stereo
Mode extension                           : MS Stereo
Codec ID                                 : 55
Codec ID/Hint                            : MP3
Duration                                 : 59mn 40s
Bit rate mode                            : Constant
Bit rate                                 : 128 Kbps
Channel(s)                               : 2 channels
Sampling rate                            : 48.0 KHz
Compression mode                         : Lossy
Delay relative to video                  : 42ms
Stream size                              : 54.6 MiB (10%)
Alignment                                : Split accross interleaves
Interleave, duration                     : 500 ms (11.99 video frames)
Interleave, preload duration             : 500 ms
Writing library                          : LAME3.98.4



 .__________________________________.
 | ________________________________ |
 | I                              I |
 | I                     _()/^)   I |
 | I                      _)\<    I |
 | I (^\()_                 \\)_  I |
 | I  >/(_     upload by     \  ` I |
 | I (/\\      g2loq666dtc   `    I |
 | I   /|                         I |
 | I   ``                         I |
 | I______________________________I |
 !__________________________________!
            ._[_______]_.
        .___|___________|___.

TÉLÉCHARGER "Shameless.US.S03E01.FASTSUB.VOSTFR.HDTV.XviD-MiND" 20x PLUS VITE AVEC USENET
Anonyme&Rapide – 14 jours gratuits

Ajouter un commentaire

Télécharger "Shameless.US.S03E01.FASTSUB.VOSTFR.HDTV.XviD-MiND" en illimité a une vitesse de 1000 kbps grïâce aux 14 Jours d'essai gratuit offerts par Usenet.nl!
 
Loading...